Поиск

(P-Funk) [CD] Brides Of Funkenstein - Never Buy Texas From A Cowboy (feat. Bernie Worrell, DeWayne McKnight, Eddie Hazel, Garry Shider, Michael Hampton) 1979 - 2011, FLAC (tracks+.cue), lossless

(P-Funk) [CD] Brides Of Funkenstein - Never Buy Texas From A Cowboy (feat. Bernie Worrell, DeWayne McKnight, Eddie Hazel, Garry Shider, Michael Hampton) 1979 - 2011, FLAC (tracks+.cue), lossless
Треклист:
Brides Of Funkenstein / Never Buy Texas From A Cowboy
Жанр: P-Funk, Disco
Носитель: CD
Год издания: 2011
Аудиокодек: FLAC (*.flac)
Тип рипа: tracks+.cue
Битрейт аудио: lossless
Продолжительность: 00:42:37
Источник (релизер): сеть
Наличие сканов в содержимом раздачи: нет
Треклист:
1 Never Buy Texas From A Cowboy 15:08
2 I'm Holding You Responsible 5:26
3 Smoke Signals 6:40
4 Mother May I? 5:31
5 Party Up In Here 5:32
6 Didn't Mean To Fall In Love 3:51
 
Лог создания рипа
Exact Audio Copy V1.0 beta 3 from 29. August 2011
EAC extraction logfile from 18. September 2013, 1:50
The Brides Of Funkenstein / Never Buy Texas From A Cowboy
Used drive : TSSTcorpCDDVDW SH-224DB Adapter: 1 ID: 0
Read mode : Secure
Utilize accurate stream : Yes
Defeat audio cache : Yes
Make use of C2 pointers : No
Read offset correction : 6
Overread into Lead-In and Lead-Out : No
Fill up missing offset samples with silence : Yes
Delete leading and trailing silent blocks : No
Null samples used in CRC calculations : Yes
Used interface : Native Win32 interface for Win NT & 2000
Gap handling : Appended to previous track
Used output format : User Defined Encoder
Selected bitrate : 1024 kBit/s
Quality : High
Add ID3 tag : No
Command line compressor : C:\Program Files\Exact Audio Copy\Flac\flac.exe
Additional command line options : -8 -V -T "ARTIST=%artist%" -T "TITLE=%title%" -T "ALBUM=%albumtitle%" -T "DATE=%year%" -T "TRACKNUMBER=%tracknr%" -T "GENRE=%genre%" -T "PERFORMER=%albuminterpret%" -T "COMPOSER=%composer%" %haslyrics%--tag-from-file=LYRICS="%lyricsfile%"%haslyrics% -T "ALBUMARTIST=%albumartist%" -T "DISCNUMBER=%cdnumber%" -T "TOTALDISCS=%totalcds%" -T "TOTALTRACKS=%numtracks%" -T "COMMENT=%comment%" %source% -o %dest%
TOC of the extracted CD
Track | Start | Length | Start sector | End sector
---------------------------------------------------------
1 | 0:00.00 | 15:13.63 | 0 | 68537
2 | 15:13.63 | 5:32.01 | 68538 | 93438
3 | 20:45.64 | 6:42.53 | 93439 | 123641
4 | 27:28.42 | 5:35.48 | 123642 | 148814
5 | 33:04.15 | 5:34.46 | 148815 | 173910
6 | 38:38.61 | 3:57.74 | 173911 | 191759
Track 1
Filename C:\EAC Rips\01 - Never Buy Texas From A Cowboy.wav
Pre-gap length 0:00:02.00
Peak level 94.4 %
Extraction speed 5.6 X
Track quality 100.0 %
Test CRC F11B590E
Copy CRC F11B590E
Accurately ripped (confidence 5) [7FBF3AEA] (AR v2)
Copy OK
Track 2
Filename C:\EAC Rips\02 - I'm Holding You Responsible.wav
Pre-gap length 0:00:02.00
Peak level 94.4 %
Extraction speed 5.3 X
Track quality 99.9 %
Test CRC 7096E5C7
Copy CRC 7096E5C7
Accurately ripped (confidence 5) [412B8EB6] (AR v2)
Copy OK
Track 3
Filename C:\EAC Rips\03 - Smoke Signals.wav
Pre-gap length 0:00:02.00
Peak level 94.4 %
Extraction speed 5.9 X
Track quality 99.9 %
Test CRC 4FBBEF2B
Copy CRC 4FBBEF2B
Accurately ripped (confidence 5) [CC7825B9] (AR v2)
Copy OK
Track 4
Filename C:\EAC Rips\04 - Mother May I.wav
Pre-gap length 0:00:02.00
Peak level 94.4 %
Extraction speed 6.0 X
Track quality 99.9 %
Test CRC B6F4C816
Copy CRC B6F4C816
Accurately ripped (confidence 5) [19C1A120] (AR v2)
Copy OK
Track 5
Filename C:\EAC Rips\05 - Party Up In Here.wav
Pre-gap length 0:00:02.00
Peak level 94.4 %
Extraction speed 6.2 X
Track quality 99.9 %
Test CRC 7643D64D
Copy CRC 7643D64D
Accurately ripped (confidence 5) [346697FA] (AR v2)
Copy OK
Track 6
Filename C:\EAC Rips\06 - Didn't Mean To Fall In Love.wav
Pre-gap length 0:00:02.00
Peak level 94.4 %
Extraction speed 7.5 X
Track quality 100.0 %
Test CRC 55719E6F
Copy CRC 55719E6F
Accurately ripped (confidence 5) [C741B410] (AR v2)
Copy OK
All tracks accurately ripped
No errors occurred
End of status report
---- CUETools DB Plugin V2.1.3
[CTDB TOCID: x95WEC_YKSgr6uC88Q.NyG6MpHQ-] found, Submit result: x95WEC_YKSgr6uC88Q.NyG6MpHQ- has been confirmed
[3f3af967] (5/5) Accurately ripped
==== Log checksum 3CF292C2296A03CC1F894E980C89019B82F7A57076A66408E66CE16DCE90126B ====
 
Содержание индексной карты (.CUE)
REM GENRE Funk
REM DATE 1979
REM DISCID 4A09FC06
REM COMMENT "ExactAudioCopy v1.0b3"
PERFORMER "The Brides Of Funkenstein"
TITLE "Never Buy Texas From A Cowboy"
FILE "01 - Never Buy Texas From A Cowboy.wav" WAVE
TRACK 01 AUDIO
TITLE "Never Buy Texas From A Cowboy"
PERFORMER "The Brides Of Funkenstein"
ISRC USAT20613261
INDEX 01 00:00:00
TRACK 02 AUDIO
TITLE "I'm Holding You Responsible"
PERFORMER "The Brides Of Funkenstein"
ISRC USAT20613262
INDEX 00 15:11:63
FILE "02 - I'm Holding You Responsible.wav" WAVE
INDEX 01 00:00:00
TRACK 03 AUDIO
TITLE "Smoke Signals"
PERFORMER "The Brides Of Funkenstein"
ISRC USAT20613263
INDEX 00 05:30:01
FILE "03 - Smoke Signals.wav" WAVE
INDEX 01 00:00:00
TRACK 04 AUDIO
TITLE "Mother May I?"
PERFORMER "The Brides Of Funkenstein"
ISRC USAT20613264
INDEX 00 06:40:53
FILE "04 - Mother May I.wav" WAVE
INDEX 01 00:00:00
TRACK 05 AUDIO
TITLE "Party Up In Here"
PERFORMER "The Brides Of Funkenstein"
ISRC USAT20613265
INDEX 00 05:33:48
FILE "05 - Party Up In Here.wav" WAVE
INDEX 01 00:00:00
TRACK 06 AUDIO
TITLE "Didn't Mean To Fall In Love"
PERFORMER "The Brides Of Funkenstein"
ISRC USAT20613266
INDEX 00 05:32:46
FILE "06 - Didn't Mean To Fall In Love.wav" WAVE
INDEX 01 00:00:00
 
Об альбоме (сборнике)
A tremendously soulful session from the late 70s P-Funk empire – sung by a group who were George Clinton's answer to Three Degrees, First Choice, and other female club trios of the time! The sound here is hardly as disco as those other groups, though – and there's plenty of funky Clinton touches in the mix – including rumbling basslines, raspy guitars, and a tightly focused groove that has the singers Dawn Silva, Sheila Horn, and Jeanette McGruder working equally with the larger group of musicians on the record. Production is by Bootsy Collins and Clinton, with horn arrangements by Fred Wesley – which makes for some great Horny Horns funk touches on most tracks! The title cut – "Never Buy Texas From A Cowboy" – runs on as a long P-Funk groove for about 15 minutes, but other tracks are shorter, and titles include "I'm Holding You Responsible", "Smoke Signals", "Party Up In Here", and "Didn't Mean To Fall In Love". (Cover has unglued seams & a cutout notch.) © 1996-2017, Dusty Groove, Inc.
 
Состав
Bass – Donnie Sterling, Jeff Cherokee Bunn, Rodney Curtis
Bass, Guitar, Drums – William Collins
Drums – Dennis Chambers, Jerry Jones, Kenny Colton
Guitar – DeWayne McKnight, Eddie Hazel, Garry Shider, Michael Hampton, Rodney Crutcher
Guitar, Bass – Bruce Nazarian
Keyboards – Bernie Worrell, Ernestro Wilson, Gary Hudgins, Jerome Rogers, Rudy Robinson
Percussion – Carl "Butch" Small, Larry Fratangelo
Producer – George Clinton
Vocals – Dawn Silva, George Clinton, Jeanette McGruder, Jessica Cleaves, Mallia Franklin, Ray Davis, Sheila Horn, Tracey Lewis
Приватный:
Нет (DHT включён)
Размер:
293.86 Мб (308,132,615 байт) » файлов: 17
Участники:
0 раздают, 0 качают (0 участников всего)
Внешние участники:
8 раздают, 2 качают (10 участников всего) [ Обновить ]
Есть вопросы - пишите личное сообщение пользователю M0p94ok.
12:45
54
Нет комментариев. Ваш будет первым!