Поиск

(Jazz-Funk) [CD] B. Baker Chocolate Co. - B. Baker Chocolate Co. - 1979 (2013 Japan Edition), FLAC (tracks+.cue), lossless

(Jazz-Funk) [CD] B. Baker Chocolate Co. - B. Baker Chocolate Co. - 1979 (2013 Japan Edition), FLAC (tracks+.cue), lossless
Треклист:
B. Baker Chocolate Co. - B. Baker Chocolate Co.
Жанр: Jazz-Funk
Носитель: CD
Страна-производитель диска (релиза): Япония
Год издания: 1979 (2013)
Издатель (лейбл): P-Vine Records
Номер по каталогу: PCD-18732
Страна исполнителя (группы): США
Аудиокодек: FLAC (*.flac)
Тип рипа: tracks+.cue
Битрейт аудио: lossless
Продолжительность: 34:55
Источник (релизер): redacted
Наличие сканов в содержимом раздачи: нет
Треклист:
01. Snow Blower (Baker-Quinn) - 6:54
02. Carousel (Baker-Quinn) - 5:43
03. Dreamer (Smith) - 5:03
04. Spirit Level (Baker-Quinn) - 6:22
05. Higher and Higher (Smith-Miner-Jackson)/The High and the Mighty (Tiomkin-Washington) - 5:42
06. It's Where You're Coming From (Friedman-Baker-Oriolo) - 5:11
 
Лог создания рипа
Exact Audio Copy V1.0 beta 3 from 29. August 2011
EAC extraction logfile from 18. May 2014, 19:47
B. Baker Chocolate Co. / B. Baker Chocolate Co.
Used drive : TSSTcorpCDDVDW SH-224DB Adapter: 0 ID: 1
Read mode : Secure
Utilize accurate stream : Yes
Defeat audio cache : No
Make use of C2 pointers : No
Read offset correction : 6
Overread into Lead-In and Lead-Out : No
Fill up missing offset samples with silence : Yes
Delete leading and trailing silent blocks : No
Null samples used in CRC calculations : Yes
Used interface : Native Win32 interface for Win NT & 2000
Gap handling : Appended to previous track
Used output format : User Defined Encoder
Selected bitrate : 256 kBit/s
Quality : High
Add ID3 tag : No
Command line compressor : C:\Program Files\Exact Audio Copy\FLAC\FLAC.EXE
Additional command line options : -8 -V -T "ARTIST=%artist%" -T "TITLE=%title%" -T "ALBUM=%albumtitle%" -T "DATE=%year%" -T "TRACKNUMBER=%tracknr%" -T "TOTALTRACKS=%numtracks%" -T "GENRE=%genre%" -T "ALBUMARTIST=%albumartist%" -T "ALBUM ARTIST=%albumartist%" -T "COMMENT=EAC Secure Mode, Test & Copy, AccurateRip, FLAC -8" %source%
TOC of the extracted CD
Track | Start | Length | Start sector | End sector
---------------------------------------------------------
1 | 0:00.00 | 6:53.55 | 0 | 31029
2 | 6:53.55 | 5:42.50 | 31030 | 56729
3 | 12:36.30 | 5:03.20 | 56730 | 79474
4 | 17:39.50 | 6:21.50 | 79475 | 108099
5 | 24:01.25 | 5:41.65 | 108100 | 133739
6 | 29:43.15 | 5:11.31 | 133740 | 157095
Track 1
Filename E:\Lossless\B.Baker Chocolate Co - B.Baker Chocolate Co (1979) [FLAC] {Japan PCD-18732}\01 - Snow Blower.wav
Pre-gap length 0:00:02.00
Peak level 99.4 %
Extraction speed 3.1 X
Track quality 100.0 %
Test CRC 6C33C130
Copy CRC 6C33C130
Accurately ripped (confidence 2) [490D3AB4] (AR v2)
Copy OK
Track 2
Filename E:\Lossless\B.Baker Chocolate Co - B.Baker Chocolate Co (1979) [FLAC] {Japan PCD-18732}\02 - Carousel.wav
Pre-gap length 0:00:01.63
Peak level 99.4 %
Extraction speed 3.6 X
Track quality 100.0 %
Test CRC 7572413E
Copy CRC 7572413E
Accurately ripped (confidence 2) [58A8DEE5] (AR v2)
Copy OK
Track 3
Filename E:\Lossless\B.Baker Chocolate Co - B.Baker Chocolate Co (1979) [FLAC] {Japan PCD-18732}\03 - Dreamer.wav
Pre-gap length 0:00:02.03
Peak level 99.4 %
Extraction speed 3.9 X
Track quality 100.0 %
Test CRC C91A1278
Copy CRC C91A1278
Accurately ripped (confidence 2) [823F2AC1] (AR v2)
Copy OK
Track 4
Filename E:\Lossless\B.Baker Chocolate Co - B.Baker Chocolate Co (1979) [FLAC] {Japan PCD-18732}\04 - Spirit Level.wav
Pre-gap length 0:00:01.52
Peak level 99.4 %
Extraction speed 4.3 X
Track quality 100.0 %
Test CRC 6DD49EF3
Copy CRC 6DD49EF3
Accurately ripped (confidence 2) [1F760A5A] (AR v2)
Copy OK
Track 5
Filename E:\Lossless\B.Baker Chocolate Co - B.Baker Chocolate Co (1979) [FLAC] {Japan PCD-18732}\05 - Higher And Higher , The High And The Mighty.wav
Pre-gap length 0:00:01.49
Peak level 99.5 %
Extraction speed 4.6 X
Track quality 100.0 %
Test CRC B40F6507
Copy CRC B40F6507
Accurately ripped (confidence 2) [65E5478D] (AR v2)
Copy OK
Track 6
Filename E:\Lossless\B.Baker Chocolate Co - B.Baker Chocolate Co (1979) [FLAC] {Japan PCD-18732}\06 - It's Where You're Coming From.wav
Pre-gap length 0:00:01.38
Peak level 99.4 %
Extraction speed 4.6 X
Track quality 99.9 %
Test CRC D15F5453
Copy CRC D15F5453
Accurately ripped (confidence 2) [31DE03F7] (AR v2)
Copy OK
All tracks accurately ripped
No errors occurred
End of status report
==== Log checksum EB1E8510C6CC9B7F56CF33B551D3EC6EEC597F25E180D328F8B3B03722066B79 ====
 
Содержание индексной карты (.CUE)
REM GENRE Jazz
REM DATE 1979
REM DISCID 49082E06
REM COMMENT "ExactAudioCopy v1.0b3"
PERFORMER "B. Baker Chocolate Co."
TITLE "B. Baker Chocolate Co."
FILE "01 - Snow Blower.wav" WAVE
TRACK 01 AUDIO
TITLE "Snow Blower"
PERFORMER "B. Baker Chocolate Co."
INDEX 01 00:00:00
TRACK 02 AUDIO
TITLE "Carousel"
PERFORMER "B. Baker Chocolate Co."
INDEX 00 06:51:67
FILE "02 - Carousel.wav" WAVE
INDEX 01 00:00:00
TRACK 03 AUDIO
TITLE "Dreamer"
PERFORMER "B. Baker Chocolate Co."
INDEX 00 05:40:47
FILE "03 - Dreamer.wav" WAVE
INDEX 01 00:00:00
TRACK 04 AUDIO
TITLE "Spirit Level"
PERFORMER "B. Baker Chocolate Co."
INDEX 00 05:01:43
FILE "04 - Spirit Level.wav" WAVE
INDEX 01 00:00:00
TRACK 05 AUDIO
TITLE "Higher and Higher/The High and the Mighty"
PERFORMER "B. Baker Chocolate Co."
INDEX 00 06:20:01
FILE "05 - Higher and Higher,The High and the Mighty.wav" WAVE
INDEX 01 00:00:00
TRACK 06 AUDIO
TITLE "It's Where You're Coming From"
PERFORMER "B. Baker Chocolate Co."
INDEX 00 05:40:27
FILE "06 - It's Where You're Coming From.wav" WAVE
INDEX 01 00:00:00
 
Отчет CUETools
[CUETools log; Date: 05.03.2017 18:43:37; Version: 2.1.5]
[CTDB TOCID: 0ai8G9mbbUlYbZI2qqqjigUB_rA-] found.
Track | CTDB Status
1 | (1/1) Accurately ripped
2 | (1/1) Accurately ripped
3 | (1/1) Accurately ripped
4 | (1/1) Accurately ripped
5 | (1/1) Accurately ripped
6 | (1/1) Accurately ripped
[AccurateRip ID: 0008a39b-002daa7b-49082e06] found.
Track [ CRC | V2 ] Status
01 [562e1dc9|490d3ab4] (0+4/4) Accurately ripped
02 [8439cd7e|58a8dee5] (0+4/4) Accurately ripped
03 [8efa7b11|823f2ac1] (0+4/4) Accurately ripped
04 [8ee4c5c6|1f760a5a] (0+4/4) Accurately ripped
05 [655ead41|65e5478d] (0+4/4) Accurately ripped
06 [f2f8fb44|31de03f7] (0+4/4) Accurately ripped
Track Peak [ CRC32 ] [W/O NULL] [ LOG ]
-- 99,5 [E5F9243D] [83FD9266]
01 99,4 [6C33C130] [C5A38514] CRC32
02 99,4 [7572413E] [89FBF945] CRC32
03 99,4 [C91A1278] [A1D5EE9B] CRC32
04 99,4 [6DD49EF3] [A58DC87A] CRC32
05 99,5 [B40F6507] [B00ABEC7] CRC32
06 99,4 [D15F5453] [CB0DC898] CRC32
 
Состав
Jimmy Ponder - guitar
Lonnie Smith - organ, synthesizer
Jimmy McGriff - organ (#3,6)
Eddie Daniels - alto saxophone (#5)
Sherry Winston - flute
George Young - alto saxophone, tenor saxophone
Gene Scott (#3), Lew Kirton (#6) - vocals
Richard Crooks, Alan Schwartzberg, Jimmy Young - drums
Babbitt, Neil Jason, Will Lee - bass
Lonnie Smith, Jimmy McGriff, Pat Rebillot, Derek Smith - keyboards
Jimmy Maelen - percussion
Alan Rubin, Jon Faddis, Lew Soloff, Marvin Stamm - trumpet
Barry Rogers, Dave Taylor - trombone
Eddie Daniels, George Young, Dave Tofani, Lew Del Gatto, Lou Marini - reeds
Gene Orloff, Frederick Buldrini, Regis Iandiorio, Jesse Levy, Marvin Morgenstern, Jonathan Abramowitz, Kermit Moore, Pat Winter, Harold Kohon, Allen W.Sanford, Joe Mullin, Guy Lumia - strings
Jocelyn Brown, Lonnie Groves (Lani Groves), Diva Gray, Gordon Grody - background vocals
Приватный:
Нет (DHT включён)
Размер:
237.91 Мб (249,467,764 байт) » файлов: 12
Участники:
0 раздают, 0 качают (0 участников всего)
Внешние участники:
2 раздают, 1 качают (3 участников всего) [ Обновить ]
Есть вопросы - пишите личное сообщение пользователю M0p94ok.
13:11
71
Нет комментариев. Ваш будет первым!