Поиск

(Funk, Soul) [CD] Jesse Johnson - Verbal Penetration - 2009 (2CD), FLAC (tracks+.cue), lossless

(Funk, Soul) [CD] Jesse Johnson - Verbal Penetration - 2009 (2CD), FLAC (tracks+.cue), lossless
Треклист:
Jesse Johnson / Verbal Penetration
Жанр: Funk, Soul
Носитель: CD
Страна-производитель диска (релиза): USA
Год издания: 2009
Издатель (лейбл): Elite Artist Services, MRI Associated Labels
Номер по каталогу: EL04
Аудиокодек: FLAC (*.flac)
Тип рипа: tracks+.cue
Битрейт аудио: lossless
Продолжительность: 1:50:59
Источник (релизер): DP
Наличие сканов в содержимом раздачи: нет
 
Vol One
01. V.P. Introduction 0:22
02. Verbal Penetration 4:35
03. Propaganda 5:22
04. U & I R We R Us 4:20
05. 100 Watts Of Funky 4:59
06. Merciful 4:43
07. Don't Throw Yourself Away 4:50
08. Slo Burnin 4:02
09. Sheila Rae 4:24
10. Love Letters 4:42
11. Dream Interlude 0:21
12. Slave 2 R Freedom 4:00
13. We Ain't Going Nowhere Interlude 0:32
14. We R So Strong 4:18
15. Beautiful Sadie 4:35
16. Prologue 0:46
 
Лог создания рипа
Exact Audio Copy V1.3 from 2. September 2016
EAC extraction logfile from 29. December 2016, 1:31
Jesse Johnson / Verbal Penetration Volume One
Used drive : hp DVD-RAM GHA3N Adapter: 1 ID: 0
Read mode : Secure
Utilize accurate stream : Yes
Defeat audio cache : Yes
Make use of C2 pointers : No
Read offset correction : 667
Overread into Lead-In and Lead-Out : No
Fill up missing offset samples with silence : Yes
Delete leading and trailing silent blocks : No
Null samples used in CRC calculations : Yes
Used interface : Native Win32 interface for Win NT & 2000
Gap handling : Appended to previous track
Used output format : User Defined Encoder
Selected bitrate : 1024 kBit/s
Quality : High
Add ID3 tag : No
Command line compressor : C:\Program Files (x86)\Exact Audio Copy\Flac\flac.exe
Additional command line options : -8 -V -T "ARTIST=%artist%" -T "TITLE=%title%" -T "ALBUM=%albumtitle%" -T "DATE=%year%" -T "TRACKNUMBER=%tracknr%" -T "GENRE=%genre%" -T "PERFORMER=%albuminterpret%" -T "COMPOSER=%composer%" %haslyrics%--tag-from-file=LYRICS="%lyricsfile%"%haslyrics% -T "ALBUMARTIST=%albumartist%" -T "DISCNUMBER=%cdnumber%" -T "TOTALDISCS=%totalcds%" -T "TOTALTRACKS=%numtracks%" -T "COMMENT=%comment%" %source% -o %dest%
TOC of the extracted CD
Track | Start | Length | Start sector | End sector
---------------------------------------------------------
1 | 0:00.00 | 0:22.44 | 0 | 1693
2 | 0:22.44 | 4:35.10 | 1694 | 22328
3 | 4:57.54 | 5:22.43 | 22329 | 46521
4 | 10:20.22 | 4:20.61 | 46522 | 66082
5 | 14:41.08 | 4:59.48 | 66083 | 88555
6 | 19:40.56 | 4:43.66 | 88556 | 109846
7 | 24:24.47 | 4:50.24 | 109847 | 131620
8 | 29:14.71 | 4:02.54 | 131621 | 149824
9 | 33:17.50 | 4:24.20 | 149825 | 169644
10 | 37:41.70 | 4:42.08 | 169645 | 190802
11 | 42:24.03 | 0:21.07 | 190803 | 192384
12 | 42:45.10 | 4:00.14 | 192385 | 210398
13 | 46:45.24 | 0:32.00 | 210399 | 212798
14 | 47:17.24 | 4:18.65 | 212799 | 232213
15 | 51:36.14 | 4:35.03 | 232214 | 252841
16 | 56:11.17 | 0:46.39 | 252842 | 256330
Track 1
Filename J:\Torrent\0.Upload\Jesse Johnson - Verbal Penetration (2009) (FLAC)\disc1\01 - V.P. Introduction.wav
Pre-gap length 0:00:02.00
Peak level 69.5 %
Extraction speed 0.4 X
Track quality 99.5 %
Test CRC 91455C60
Copy CRC 91455C60
Accurately ripped (confidence 7) [B1004EC1] (AR v1)
Copy OK
Track 2
Filename J:\Torrent\0.Upload\Jesse Johnson - Verbal Penetration (2009) (FLAC)\disc1\02 - Verbal Penetration.wav
Peak level 98.8 %
Extraction speed 1.9 X
Track quality 100.0 %
Test CRC F140FEB4
Copy CRC F140FEB4
Accurately ripped (confidence 7) [5A374A67] (AR v1)
Copy OK
Track 3
Filename J:\Torrent\0.Upload\Jesse Johnson - Verbal Penetration (2009) (FLAC)\disc1\03 - Propaganda.wav
Peak level 98.8 %
Extraction speed 2.2 X
Track quality 100.0 %
Test CRC E07DA418
Copy CRC E07DA418
Accurately ripped (confidence 7) [07388431] (AR v1)
Copy OK
Track 4
Filename J:\Torrent\0.Upload\Jesse Johnson - Verbal Penetration (2009) (FLAC)\disc1\04 - U & I R We R Us.wav
Peak level 98.8 %
Extraction speed 2.3 X
Track quality 100.0 %
Test CRC 83309DF5
Copy CRC 83309DF5
Accurately ripped (confidence 7) [13EDE66B] (AR v1)
Copy OK
Track 5
Filename J:\Torrent\0.Upload\Jesse Johnson - Verbal Penetration (2009) (FLAC)\disc1\05 - 100 Watts Of Funky.wav
Peak level 98.8 %
Extraction speed 2.5 X
Track quality 100.0 %
Test CRC AB30FC59
Copy CRC AB30FC59
Accurately ripped (confidence 7) [C7E5BA9A] (AR v1)
Copy OK
Track 6
Filename J:\Torrent\0.Upload\Jesse Johnson - Verbal Penetration (2009) (FLAC)\disc1\06 - Merciful.wav
Peak level 98.8 %
Extraction speed 2.4 X
Track quality 99.9 %
Test CRC 817F8B60
Copy CRC 817F8B60
Accurately ripped (confidence 7) [0944CAF5] (AR v1)
Copy OK
Track 7
Filename J:\Torrent\0.Upload\Jesse Johnson - Verbal Penetration (2009) (FLAC)\disc1\07 - Don't Throw Yourself Away.wav
Peak level 98.5 %
Extraction speed 2.9 X
Track quality 100.0 %
Test CRC B47E14CE
Copy CRC B47E14CE
Accurately ripped (confidence 7) [D7D56928] (AR v1)
Copy OK
Track 8
Filename J:\Torrent\0.Upload\Jesse Johnson - Verbal Penetration (2009) (FLAC)\disc1\08 - Slo Burnin.wav
Peak level 98.8 %
Extraction speed 3.0 X
Track quality 100.0 %
Test CRC BA3ED56D
Copy CRC BA3ED56D
Accurately ripped (confidence 7) [93511A05] (AR v1)
Copy OK
Track 9
Filename J:\Torrent\0.Upload\Jesse Johnson - Verbal Penetration (2009) (FLAC)\disc1\09 - Sheila Rae.wav
Peak level 98.8 %
Extraction speed 2.8 X
Track quality 99.9 %
Test CRC 7B2F66C7
Copy CRC 7B2F66C7
Accurately ripped (confidence 7) [EA9DA795] (AR v1)
Copy OK
Track 10
Filename J:\Torrent\0.Upload\Jesse Johnson - Verbal Penetration (2009) (FLAC)\disc1\10 - Love Letters.wav
Peak level 98.8 %
Extraction speed 3.2 X
Track quality 100.0 %
Test CRC 1566DF83
Copy CRC 1566DF83
Accurately ripped (confidence 7) [E163D314] (AR v1)
Copy OK
Track 11
Filename J:\Torrent\0.Upload\Jesse Johnson - Verbal Penetration (2009) (FLAC)\disc1\11 - Dream Interlude.wav
Peak level 72.5 %
Extraction speed 1.2 X
Track quality 100.0 %
Test CRC C8633F81
Copy CRC C8633F81
Accurately ripped (confidence 7) [F8676F69] (AR v1)
Copy OK
Track 12
Filename J:\Torrent\0.Upload\Jesse Johnson - Verbal Penetration (2009) (FLAC)\disc1\12 - Slave 2 R Freedom.wav
Peak level 98.8 %
Extraction speed 3.4 X
Track quality 100.0 %
Test CRC 232AF879
Copy CRC 232AF879
Accurately ripped (confidence 7) [7FADF3C2] (AR v1)
Copy OK
Track 13
Filename J:\Torrent\0.Upload\Jesse Johnson - Verbal Penetration (2009) (FLAC)\disc1\13 - We Ain't Going Nowhere Interlude.wav
Peak level 91.0 %
Extraction speed 1.8 X
Track quality 100.0 %
Test CRC D9529F6F
Copy CRC D9529F6F
Accurately ripped (confidence 7) [6098E12D] (AR v1)
Copy OK
Track 14
Filename J:\Torrent\0.Upload\Jesse Johnson - Verbal Penetration (2009) (FLAC)\disc1\14 - We R So Strong.wav
Peak level 98.3 %
Extraction speed 3.5 X
Track quality 100.0 %
Test CRC D0C3D68A
Copy CRC D0C3D68A
Accurately ripped (confidence 7) [E12CCFB9] (AR v1)
Copy OK
Track 15
Filename J:\Torrent\0.Upload\Jesse Johnson - Verbal Penetration (2009) (FLAC)\disc1\15 - Beatiful Sadie.wav
Peak level 98.1 %
Extraction speed 3.7 X
Track quality 100.0 %
Test CRC 38F52687
Copy CRC 38F52687
Accurately ripped (confidence 7) [4B530E35] (AR v1)
Copy OK
Track 16
Filename J:\Torrent\0.Upload\Jesse Johnson - Verbal Penetration (2009) (FLAC)\disc1\16 - Prologue.wav
Peak level 97.6 %
Extraction speed 1.7 X
Track quality 99.7 %
Test CRC 12FEFB7A
Copy CRC 12FEFB7A
Accurately ripped (confidence 7) [2FBF8ACD] (AR v1)
Copy OK
All tracks accurately ripped
No errors occurred
End of status report
---- CUETools DB Plugin V2.1.6
[CTDB TOCID: qsp3s_9nDfBch9x0tiKdkixIQkE-] found
Submit result: qsp3s_9nDfBch9x0tiKdkixIQkE- has been confirmed
Track | CTDB Status
1 | (1/1) Accurately ripped
2 | (1/1) Accurately ripped
3 | (1/1) Accurately ripped
4 | (1/1) Accurately ripped
5 | (1/1) Accurately ripped
6 | (1/1) Accurately ripped
7 | (1/1) Accurately ripped
8 | (1/1) Accurately ripped
9 | (1/1) Accurately ripped
10 | (1/1) Accurately ripped
11 | (1/1) Accurately ripped
12 | (1/1) Accurately ripped
13 | (1/1) Accurately ripped
14 | (1/1) Accurately ripped
15 | (1/1) Accurately ripped
16 | (1/1) Accurately ripped
==== Log checksum 9B220F1D0D066C6C7241B2683EC7C05ED6774B666845BD6B14BCEE4186575FF2 ====
 
Содержание индексной карты (.CUE)
REM GENRE Funk
REM DATE 2009
REM DISCID 030D5910
REM COMMENT "ExactAudioCopy v1.3"
PERFORMER "Jesse Johnson"
TITLE "Verbal Penetration Volume One"
REM COMPOSER ""
FILE "01 - V.P. Introduction.wav" WAVE
TRACK 01 AUDIO
TITLE "V.P. Introduction"
PERFORMER "Jesse Johnson"
REM COMPOSER ""
ISRC USMEG0900147
INDEX 01 00:00:00
FILE "02 - Verbal Penetration.wav" WAVE
TRACK 02 AUDIO
TITLE "Verbal Penetration"
PERFORMER "Jesse Johnson"
REM COMPOSER ""
ISRC USMEG0900148
INDEX 01 00:00:00
FILE "03 - Propaganda.wav" WAVE
TRACK 03 AUDIO
TITLE "Propaganda"
PERFORMER "Jesse Johnson"
REM COMPOSER ""
ISRC USMEG0900149
INDEX 01 00:00:00
FILE "04 - U & I R We R Us.wav" WAVE
TRACK 04 AUDIO
TITLE "U & I R We R Us"
PERFORMER "Jesse Johnson"
REM COMPOSER ""
ISRC USMEG0900150
INDEX 01 00:00:00
FILE "05 - 100 Watts Of Funky.wav" WAVE
TRACK 05 AUDIO
TITLE "100 Watts Of Funky"
PERFORMER "Jesse Johnson"
REM COMPOSER ""
ISRC USMEG0900151
INDEX 01 00:00:00
FILE "06 - Merciful.wav" WAVE
TRACK 06 AUDIO
TITLE "Merciful"
PERFORMER "Jesse Johnson"
REM COMPOSER ""
ISRC USMEG0900152
INDEX 01 00:00:00
FILE "07 - Don't Throw Yourself Away.wav" WAVE
TRACK 07 AUDIO
TITLE "Don't Throw Yourself Away"
PERFORMER "Jesse Johnson"
REM COMPOSER ""
ISRC USMEG0900153
INDEX 01 00:00:00
FILE "08 - Slo Burnin.wav" WAVE
TRACK 08 AUDIO
TITLE "Slo Burnin"
PERFORMER "Jesse Johnson"
REM COMPOSER ""
ISRC USMEG0900154
INDEX 01 00:00:00
FILE "09 - Sheila Rae.wav" WAVE
TRACK 09 AUDIO
TITLE "Sheila Rae"
PERFORMER "Jesse Johnson"
REM COMPOSER ""
ISRC USMEG0900155
INDEX 01 00:00:00
FILE "10 - Love Letters.wav" WAVE
TRACK 10 AUDIO
TITLE "Love Letters"
PERFORMER "Jesse Johnson"
REM COMPOSER ""
ISRC USMEG0900156
INDEX 01 00:00:00
FILE "11 - Dream Interlude.wav" WAVE
TRACK 11 AUDIO
TITLE "Dream Interlude"
PERFORMER "Jesse Johnson"
REM COMPOSER ""
ISRC USMEG0900157
INDEX 01 00:00:00
FILE "12 - Slave 2 R Freedom.wav" WAVE
TRACK 12 AUDIO
TITLE "Slave 2 R Freedom"
PERFORMER "Jesse Johnson"
REM COMPOSER ""
ISRC USMEG0900158
INDEX 01 00:00:00
FILE "13 - We Ain't Going Nowhere Interlude.wav" WAVE
TRACK 13 AUDIO
TITLE "We Ain't Going Nowhere Interlude"
PERFORMER "Jesse Johnson"
REM COMPOSER ""
ISRC USMEG0900159
INDEX 01 00:00:00
FILE "14 - We R So Strong.wav" WAVE
TRACK 14 AUDIO
TITLE "We R So Strong"
PERFORMER "Jesse Johnson"
REM COMPOSER ""
ISRC USMEG0900160
INDEX 01 00:00:00
FILE "15 - Beatiful Sadie.wav" WAVE
TRACK 15 AUDIO
TITLE "Beatiful Sadie"
PERFORMER "Jesse Johnson"
REM COMPOSER ""
ISRC USMEG0900161
INDEX 01 00:00:00
FILE "16 - Prologue.wav" WAVE
TRACK 16 AUDIO
TITLE "Prologue"
PERFORMER "Jesse Johnson"
REM COMPOSER ""
ISRC USMEG0900162
INDEX 01 00:00:00
 
DR Log
foobar2000 1.1.10 / Dynamic Range Meter 1.1.1
log date: 2017-03-06 08:44:57
--------------------------------------------------------------------------------
Analyzed: Jesse Johnson / Verbal Penetration Volume One
--------------------------------------------------------------------------------
DR Peak RMS Duration Track
--------------------------------------------------------------------------------
DR12 -3.16 dB -20.93 dB 0:23 ?-V.P. Introduction
DR6 -0.10 dB -6.89 dB 4:35 ?-Verbal Penetration
DR7 -0.10 dB -8.74 dB 5:23 ?-Propaganda
DR7 -0.10 dB -8.11 dB 4:21 ?-U & I R We R Us
DR7 -0.10 dB -8.14 dB 5:00 ?-100 Watts Of Funky
DR7 -0.10 dB -8.60 dB 4:44 ?-Merciful
DR9 -0.13 dB -10.99 dB 4:50 ?-Don't Throw Yourself Away
DR7 -0.10 dB -8.49 dB 4:03 ?-Slo Burnin
DR7 -0.10 dB -7.91 dB 4:24 ?-Sheila Rae
DR8 -0.10 dB -9.55 dB 4:42 ?-Love Letters
DR14 -2.78 dB -20.90 dB 0:21 ?-Dream Interlude
DR7 -0.10 dB -8.08 dB 4:00 ?-Slave 2 R Freedom
DR7 -0.82 dB -9.69 dB 0:32 ?-We Ain't Going Nowhere Interlude
DR8 -0.15 dB -10.02 dB 4:19 ?-We R So Strong
DR8 -0.16 dB -8.74 dB 4:35 ?-Beatiful Sadie
DR11 -0.21 dB -15.11 dB 0:47 ?-Prologue
--------------------------------------------------------------------------------
Number of tracks: 16
Official DR value: DR8
Samplerate: 44100 Hz
Channels: 2
Bits per sample: 16
Bitrate: 719 kbps
Codec: FLAC
================================================================================
 
Vol Two
01. Intro 0:11
02. Get Next To You 3:52
03. Ali Vs Frazier 3:36
04. Redemption For The Soul, Enlightenment For The Earhole 8:50
05. Please Let Me Go 4:08
06. Meditation 01: Astrology 3:52
07. You Have A Friend 3:41
08. Reflections 6:38
09. Meditation 02: Self-Love 3:46
10. Letters From A Soldier (Reprise) 4:36
11. In The Key Of Nudity 3:55
12. V.P. Credits 3:00
13. Peace Be With You (Reprise) 3:50
 
Лог создания рипа
Exact Audio Copy V1.3 from 2. September 2016
EAC extraction logfile from 29. December 2016, 9:34
Jesse Johnson / Verbal Penetration Volume Two
Used drive : hp DVD-RAM GHA3N Adapter: 1 ID: 0
Read mode : Secure
Utilize accurate stream : Yes
Defeat audio cache : Yes
Make use of C2 pointers : No
Read offset correction : 667
Overread into Lead-In and Lead-Out : No
Fill up missing offset samples with silence : Yes
Delete leading and trailing silent blocks : No
Null samples used in CRC calculations : Yes
Used interface : Native Win32 interface for Win NT & 2000
Gap handling : Appended to previous track
Used output format : User Defined Encoder
Selected bitrate : 1024 kBit/s
Quality : High
Add ID3 tag : No
Command line compressor : C:\Program Files (x86)\Exact Audio Copy\Flac\flac.exe
Additional command line options : -8 -V -T "ARTIST=%artist%" -T "TITLE=%title%" -T "ALBUM=%albumtitle%" -T "DATE=%year%" -T "TRACKNUMBER=%tracknr%" -T "GENRE=%genre%" -T "PERFORMER=%albuminterpret%" -T "COMPOSER=%composer%" %haslyrics%--tag-from-file=LYRICS="%lyricsfile%"%haslyrics% -T "ALBUMARTIST=%albumartist%" -T "DISCNUMBER=%cdnumber%" -T "TOTALDISCS=%totalcds%" -T "TOTALTRACKS=%numtracks%" -T "COMMENT=%comment%" %source% -o %dest%
TOC of the extracted CD
Track | Start | Length | Start sector | End sector
---------------------------------------------------------
1 | 0:00.00 | 0:11.20 | 0 | 844
2 | 0:11.20 | 3:52.72 | 845 | 18316
3 | 4:04.17 | 3:36.08 | 18317 | 34524
4 | 7:40.25 | 8:50.62 | 34525 | 74336
5 | 16:31.12 | 4:08.52 | 74337 | 92988
6 | 20:39.64 | 3:52.22 | 92989 | 110410
7 | 24:32.11 | 3:41.00 | 110411 | 126985
8 | 28:13.11 | 6:38.32 | 126986 | 156867
9 | 34:51.43 | 3:46.41 | 156868 | 173858
10 | 38:38.09 | 4:36.47 | 173859 | 194605
11 | 43:14.56 | 3:55.61 | 194606 | 212291
12 | 47:10.42 | 3:00.25 | 212292 | 225816
13 | 50:10.67 | 3:50.23 | 225817 | 243089
Track 1
Filename J:\Torrent\0.Upload\Jesse Johnson - Verbal Penetration (2009) (FLAC)\disc2\01 - Intro.wav
Pre-gap length 0:00:02.00
Peak level 74.3 %
Extraction speed 0.2 X
Track quality 99.0 %
Test CRC 6C1DAEF9
Copy CRC 6C1DAEF9
Accurately ripped (confidence 8) [673A99B9] (AR v1)
Copy OK
Track 2
Filename J:\Torrent\0.Upload\Jesse Johnson - Verbal Penetration (2009) (FLAC)\disc2\02 - Get Next To You.wav
Peak level 98.8 %
Extraction speed 1.8 X
Track quality 100.0 %
Test CRC C52D30DC
Copy CRC C52D30DC
Accurately ripped (confidence 8) [61CBABFA] (AR v1)
Copy OK
Track 3
Filename J:\Torrent\0.Upload\Jesse Johnson - Verbal Penetration (2009) (FLAC)\disc2\03 - Ali vs. Frazier.wav
Peak level 81.6 %
Extraction speed 1.7 X
Track quality 99.9 %
Test CRC 88267B62
Copy CRC 88267B62
Accurately ripped (confidence 8) [EB9DC606] (AR v1)
Copy OK
Track 4
Filename J:\Torrent\0.Upload\Jesse Johnson - Verbal Penetration (2009) (FLAC)\disc2\04 - Redemption For The Soul, Enlightenment For The Earhole.wav
Peak level 98.8 %
Extraction speed 2.5 X
Track quality 100.0 %
Test CRC 4A72DF14
Copy CRC 4A72DF14
Accurately ripped (confidence 7) [E0C3EDA4] (AR v1)
Copy OK
Track 5
Filename J:\Torrent\0.Upload\Jesse Johnson - Verbal Penetration (2009) (FLAC)\disc2\05 - Please Let Me Go.wav
Peak level 98.8 %
Extraction speed 2.6 X
Track quality 100.0 %
Test CRC 34EEC558
Copy CRC 34EEC558
Accurately ripped (confidence 8) [DAB1CFE5] (AR v1)
Copy OK
Track 6
Filename J:\Torrent\0.Upload\Jesse Johnson - Verbal Penetration (2009) (FLAC)\disc2\06 - Meditation 01- Astrology.wav
Peak level 97.8 %
Extraction speed 2.6 X
Track quality 100.0 %
Test CRC ACD34E8B
Copy CRC ACD34E8B
Accurately ripped (confidence 8) [B5863772] (AR v1)
Copy OK
Track 7
Filename J:\Torrent\0.Upload\Jesse Johnson - Verbal Penetration (2009) (FLAC)\disc2\07 - You Have A Friend.wav
Peak level 98.8 %
Extraction speed 2.7 X
Track quality 100.0 %
Test CRC 43942C4D
Copy CRC 43942C4D
Accurately ripped (confidence 8) [86C6CF53] (AR v1)
Copy OK
Track 8
Filename J:\Torrent\0.Upload\Jesse Johnson - Verbal Penetration (2009) (FLAC)\disc2\08 - Reflections.wav
Peak level 98.8 %
Extraction speed 3.2 X
Track quality 100.0 %
Test CRC CA16185B
Copy CRC CA16185B
Accurately ripped (confidence 8) [2D58161E] (AR v1)
Copy OK
Track 9
Filename J:\Torrent\0.Upload\Jesse Johnson - Verbal Penetration (2009) (FLAC)\disc2\09 - Meditation 02- Self-Love.wav
Peak level 95.6 %
Extraction speed 3.1 X
Track quality 100.0 %
Test CRC 22D22642
Copy CRC 22D22642
Accurately ripped (confidence 8) [D389D76A] (AR v1)
Copy OK
Track 10
Filename J:\Torrent\0.Upload\Jesse Johnson - Verbal Penetration (2009) (FLAC)\disc2\10 - Letters From A Soldier (Reprise).wav
Peak level 97.8 %
Extraction speed 3.2 X
Track quality 100.0 %
Test CRC 4828DEDF
Copy CRC 4828DEDF
Accurately ripped (confidence 8) [97301FB1] (AR v1)
Copy OK
Track 11
Filename J:\Torrent\0.Upload\Jesse Johnson - Verbal Penetration (2009) (FLAC)\disc2\11 - In The Key Of Nudity.wav
Peak level 98.8 %
Extraction speed 3.4 X
Track quality 100.0 %
Test CRC 87035AD2
Copy CRC 87035AD2
Accurately ripped (confidence 7) [70A6D754] (AR v1)
Copy OK
Track 12
Filename J:\Torrent\0.Upload\Jesse Johnson - Verbal Penetration (2009) (FLAC)\disc2\12 - V.P. Credits.wav
Peak level 97.4 %
Extraction speed 3.3 X
Track quality 100.0 %
Test CRC 298E04C8
Copy CRC 298E04C8
Accurately ripped (confidence 6) [614BF829] (AR v1)
Copy OK
Track 13
Filename J:\Torrent\0.Upload\Jesse Johnson - Verbal Penetration (2009) (FLAC)\disc2\13 - Peace Be With You (Reprise).wav
Peak level 97.1 %
Extraction speed 3.6 X
Track quality 100.0 %
Test CRC 101E0E0F
Copy CRC 101E0E0F
Accurately ripped (confidence 8) [49215FF7] (AR v1)
Copy OK
All tracks accurately ripped
No errors occurred
End of status report
---- CUETools DB Plugin V2.1.6
[CTDB TOCID: zqXKOEedqrR7ho_eeHIHwGCqv4E-] found
Submit result: zqXKOEedqrR7ho_eeHIHwGCqv4E- has been confirmed
Track | CTDB Status
1 | (1/1) Accurately ripped
2 | (1/1) Accurately ripped
3 | (1/1) Accurately ripped
4 | (1/1) Accurately ripped
5 | (1/1) Accurately ripped
6 | (1/1) Accurately ripped
7 | (1/1) Accurately ripped
8 | (1/1) Accurately ripped
9 | (1/1) Accurately ripped
10 | (1/1) Accurately ripped
11 | (1/1) Accurately ripped
12 | (1/1) Accurately ripped
13 | (1/1) Accurately ripped
==== Log checksum 5AD013CA64E9BB684C63C9AA9A0C60CF0C1788119C6E1CB05A256817FC4619C6 ====
 
Содержание индексной карты (.CUE)
REM GENRE Funk
REM DATE 2009
REM DISCID A00CA90D
REM COMMENT "ExactAudioCopy v1.3"
PERFORMER "Jesse Johnson"
TITLE "Verbal Penetration Volume Two"
REM COMPOSER ""
FILE "01 - Intro.wav" WAVE
TRACK 01 AUDIO
TITLE "Intro"
PERFORMER "Jesse Johnson"
REM COMPOSER ""
ISRC USMEG0900163
INDEX 01 00:00:00
FILE "02 - Get Next To You.wav" WAVE
TRACK 02 AUDIO
TITLE "Get Next To You"
PERFORMER "Jesse Johnson"
REM COMPOSER ""
ISRC USMEG0900164
INDEX 01 00:00:00
FILE "03 - Ali vs. Frazier.wav" WAVE
TRACK 03 AUDIO
TITLE "Ali vs. Frazier"
PERFORMER "Jesse Johnson"
REM COMPOSER ""
ISRC USMEG0900165
INDEX 01 00:00:00
FILE "04 - Redemption For The Soul, Enlightenment For The Earhole.wav" WAVE
TRACK 04 AUDIO
TITLE "Redemption For The Soul, Enlightenment For The Earhole"
PERFORMER "Jesse Johnson"
REM COMPOSER ""
ISRC USMEG0900166
INDEX 01 00:00:00
FILE "05 - Please Let Me Go.wav" WAVE
TRACK 05 AUDIO
TITLE "Please Let Me Go"
PERFORMER "Jesse Johnson"
REM COMPOSER ""
ISRC USMEG0900167
INDEX 01 00:00:00
FILE "06 - Meditation 01- Astrology.wav" WAVE
TRACK 06 AUDIO
TITLE "Meditation 01: Astrology"
PERFORMER "Jesse Johnson"
REM COMPOSER ""
ISRC USMEG0900168
INDEX 01 00:00:00
FILE "07 - You Have A Friend.wav" WAVE
TRACK 07 AUDIO
TITLE "You Have A Friend"
PERFORMER "Jesse Johnson"
REM COMPOSER ""
ISRC USMEG0900169
INDEX 01 00:00:00
FILE "08 - Reflections.wav" WAVE
TRACK 08 AUDIO
TITLE "Reflections"
PERFORMER "Jesse Johnson"
REM COMPOSER ""
ISRC USMEG0900170
INDEX 01 00:00:00
FILE "09 - Meditation 02- Self-Love.wav" WAVE
TRACK 09 AUDIO
TITLE "Meditation 02: Self-Love"
PERFORMER "Jesse Johnson"
REM COMPOSER ""
ISRC USMEG0900171
INDEX 01 00:00:00
FILE "10 - Letters From A Soldier (Reprise).wav" WAVE
TRACK 10 AUDIO
TITLE "Letters From A Soldier (Reprise)"
PERFORMER "Jesse Johnson"
REM COMPOSER ""
ISRC USMEG0900172
INDEX 01 00:00:00
FILE "11 - In The Key Of Nudity.wav" WAVE
TRACK 11 AUDIO
TITLE "In The Key Of Nudity"
PERFORMER "Jesse Johnson"
REM COMPOSER ""
ISRC USMEG0900173
INDEX 01 00:00:00
FILE "12 - V.P. Credits.wav" WAVE
TRACK 12 AUDIO
TITLE "V.P. Credits"
PERFORMER "Jesse Johnson"
REM COMPOSER ""
ISRC USMEG0900174
INDEX 01 00:00:00
FILE "13 - Peace Be With You (Reprise).wav" WAVE
TRACK 13 AUDIO
TITLE "Peace Be With You (Reprise)"
PERFORMER "Jesse Johnson"
REM COMPOSER ""
ISRC USMEG0900175
INDEX 01 00:00:00
 
DR Log
foobar2000 1.1.10 / Dynamic Range Meter 1.1.1
log date: 2017-03-06 08:41:57
--------------------------------------------------------------------------------
Analyzed: Jesse Johnson / Verbal Penetration Volume Two
--------------------------------------------------------------------------------
DR Peak RMS Duration Track
--------------------------------------------------------------------------------
DR18 -2.58 dB -23.37 dB 0:11 ?-Intro
DR6 -0.10 dB -8.04 dB 3:53 ?-Get Next To You
DR7 -1.76 dB -10.75 dB 3:36 ?-Ali vs. Frazier
DR10 -0.10 dB -12.19 dB 8:51 ?-Redemption For The Soul, Enlightenment For The Earhole
DR7 -0.10 dB -8.80 dB 4:09 ?-Please Let Me Go
DR9 -0.19 dB -10.67 dB 3:52 ?-Meditation 01: Astrology
DR7 -0.10 dB -9.01 dB 3:41 ?-You Have A Friend
DR9 -0.10 dB -10.96 dB 6:38 ?-Reflections
DR12 -0.39 dB -13.92 dB 3:47 ?-Meditation 02: Self-Love
DR8 -0.19 dB -9.38 dB 4:37 ?-Letters From A Soldier (Reprise)
DR7 -0.10 dB -8.55 dB 3:56 ?-In The Key Of Nudity
DR10 -0.22 dB -12.29 dB 3:00 ?-V.P. Credits
DR8 -0.25 dB -9.39 dB 3:50 ?-Peace Be With You (Reprise)
--------------------------------------------------------------------------------
Number of tracks: 13
Official DR value: DR9
Samplerate: 44100 Hz
Channels: 2
Bits per sample: 16
Bitrate: 732 kbps
Codec: FLAC
================================================================================
 
Об исполнителе (группе)
Jesse Johnson—Guitarist/Composer/Producer—Has an impressive set of credentials. With accomplishments including four solo LPs (A&M Records), four LPs with The Time (Warner Brother’s Records), numerous Gold & Platinum LPs, numerous performances and recordings with and for top artists around the world, Jesse has established himself as a bona fide talent.
Jesse was born in Rock Island, Illinois, but cut his musical teeth in East St. Louis, Ill & St. Louis, Mo. He started playing guitar and taught himself to play by listening to recordings of Lightning’ Hopkins, Funkadelic, Albert King, B.B. King, Curtis Mayfield, Muddy Waters, Jimi Hendrix, Led Zeppelin, Robert Johnson, just to name a few of his favorites.
Helping to create "The Time", a national act provided the guitarist unimaginable opportunities such as: Signing to WB Records, a successful charting record, selling Gold status, worldwide notoriety, performing to large audiences worldwide, and most importantly learning how to craft and record songs. The show of proof in his early song writing development, can be heard in compositions he co-wrote with Prince such as: The Time’s” “Jungle Love”, “The Bird” “Ice Cream Castles” and “If The Kid”. (Jesse first published work was “Bite The Beat” by Vanity 6)
Jesse soon left The Time after finishing “Purple Rain” the movie and The Time’s “Ice Cream Castles” LP to pursue a solo career. He dove into producing and writing his first solo LP for A&M records, “Jesse Johnson’s Revue”. His solo efforts proved to be another successful move. His first solo project produced three top ten singles, “Be Your Man”, “Can You Help Me” and “I Want My Girl”. Jesse Johnson’s Revue soon became an added addition to the Gold & Platinum awards that decorated the walls of the studio.
His accomplishments did not go un-noticed. After the success of his first album, Jesse makes worthy strides in movie scoring and soundtracks by contributing to notable films such as, “The Breakfast Club”, “Pretty In Pink”, “Another 48 Hours”, “A Time to Kill”, “White Men Can’t Jump” “Action Jackson”, “Graffiti Bridge”, “The 5 Heartbeats” and even independent films such as “Steam” (2009), to name a few.
Jesse returned to the studio to write, produce and perform another solo album but with a different sound. “Bare My Naked Soul” is Jesse’s stripped down approach to music. He digs deep, and once again produces an album that explores the depth of his soul. The album is flavored with guitar, and is uniquely different from anything he had previously released.
With Jesse’s undying drive to express himself through his music he’s back from the studio to deliver his latest release, “Verbal Penetration”. This album, once again exposes Jesse’s soul to the world by creating a truly timeless piece addressing issues that affect society today. This album is sometimes reminiscent of his past work. But with a refreshing twist that is sure to please many a fan that fell in love with Jesse’s style of music, guitar playing, and songwriting. “Verbal Penetration” will capture audiences ready for something new as well as thought provoking.
Jesse’s continued fan support by admires of his work worldwide, comes as no surprise to anyone who understands the longevity of music that moves you, or in the case of Jesse Johnson, “Music That Makes You Move!!!
 
Об альбоме (сборнике)
Outside cover shows Volume One and Volume Two on the different sides, the discs however are both label Verbal Penetration Volume One and are tagged with I and II.
Приватный:
Нет (DHT включён)
Размер:
695.44 Мб (729,221,621 байт) » файлов: 39
Участники:
0 раздают, 0 качают (0 участников всего)
Внешние участники:
1 раздают, 0 качают (1 участников всего) [ Обновить ]
Есть вопросы - пишите личное сообщение пользователю M0p94ok.
13:12
61
Нет комментариев. Ваш будет первым!