Поиск

(Soul, Synth-pop, Funk, R&B) [CD] Jesse Johnson - Every Shade Of Love - 1988, FLAC (tracks+.cue), lossless

(Soul, Synth-pop, Funk, R&B) [CD] Jesse Johnson - Every Shade Of Love - 1988, FLAC (tracks+.cue), lossless
Треклист:
Jesse Johnson / Every Shade Of Love
Жанр: Soul, Synth-pop, Funk, R&B
Носитель: CD
Страна-производитель диска (релиза): USA
Год издания: 1988
Издатель (лейбл): A&M Records
Номер по каталогу: CD-5188, A&M, DX-2805
Аудиокодек: FLAC (*.flac)
Тип рипа: tracks+.cue
Битрейт аудио: lossless
Продолжительность: 38:01
Источник (релизер): DP
Наличие сканов в содержимом раздачи: да
Треклист:
1. Love Struck 5:18
2. So Misunderstood 6:08
3. I'm The One 4:51
4. Color Shock 3:43
5. Every Shade Of Love 4:44
6. Everybody Wants Somebody To Love 3:49
7. I'm Just Wanting You 5:43
8. Stop-Look-Listen 3:30
 
Лог создания рипа
Exact Audio Copy V1.3 from 2. September 2016
EAC extraction logfile from 27. February 2017, 7:23
Jesse Johnson / Every Shade Of Love
Used drive : HL-DT-STDVDRAM GP50NB40 Adapter: 1 ID: 3
Read mode : Secure
Utilize accurate stream : Yes
Defeat audio cache : Yes
Make use of C2 pointers : No
Read offset correction : 6
Overread into Lead-In and Lead-Out : No
Fill up missing offset samples with silence : Yes
Delete leading and trailing silent blocks : No
Null samples used in CRC calculations : Yes
Used interface : Native Win32 interface for Win NT & 2000
Gap handling : Appended to previous track
Used output format : User Defined Encoder
Selected bitrate : 1024 kBit/s
Quality : High
Add ID3 tag : No
Command line compressor : C:\Program Files\flac-1.3.1-win\win32\flac.exe
Additional command line options : -8 -e -p -V -T "ARTIST=%artist%" -T "TITLE=%title%" -T "ALBUM=%albumtitle%" -T "DATE=%year%" -T "TRACKNUMBER=%tracknr%" -T "GENRE=%genre%" -T "PERFORMER=%albuminterpret%" -T "COMPOSER=%composer%" %haslyrics%--tag-from-file=LYRICS="%lyricsfile%"%haslyrics% -T "ALBUMARTIST=%albumartist%" -T "DISCNUMBER=%cdnumber%" -T "TOTALDISCS=%totalcds%" -T "TOTALTRACKS=%numtracks%" -T "COMMENT=%comment%" %source% -o %dest%
TOC of the extracted CD
Track | Start | Length | Start sector | End sector
---------------------------------------------------------
1 | 0:00.00 | 5:20.15 | 0 | 24014
2 | 5:20.15 | 6:11.13 | 24015 | 51852
3 | 11:31.28 | 4:51.60 | 51853 | 73737
4 | 16:23.13 | 3:45.10 | 73738 | 90622
5 | 20:08.23 | 4:46.37 | 90623 | 112109
6 | 24:54.60 | 3:49.65 | 112110 | 129349
7 | 28:44.50 | 5:45.15 | 129350 | 155239
8 | 34:29.65 | 3:30.73 | 155240 | 171062
Track 1
Filename H:\(ripper)\Jesse Johnson - Every Shade Of Love [1988] [FLAC]\01 - Lovestruck.wav
Pre-gap length 0:00:02.00
Peak level 93.3 %
Extraction speed 1.3 X
Track quality 100.0 %
Test CRC CF2E9406
Copy CRC CF2E9406
Accurately ripped (confidence 3) [6EC10F19] (AR v2)
Copy OK
Track 2
Filename H:\(ripper)\Jesse Johnson - Every Shade Of Love [1988] [FLAC]\02 - So Misunderstood.wav
Pre-gap length 0:00:01.32
Peak level 91.1 %
Extraction speed 1.4 X
Track quality 99.9 %
Test CRC ACC9A6B3
Copy CRC ACC9A6B3
Accurately ripped (confidence 3) [DC2A7A00] (AR v2)
Copy OK
Track 3
Filename H:\(ripper)\Jesse Johnson - Every Shade Of Love [1988] [FLAC]\03 - I'm The One.wav
Pre-gap length 0:00:02.28
Peak level 93.3 %
Extraction speed 1.5 X
Track quality 99.9 %
Test CRC F573C598
Copy CRC F573C598
Accurately ripped (confidence 3) [1BD8D961] (AR v2)
Copy OK
Track 4
Filename H:\(ripper)\Jesse Johnson - Every Shade Of Love [1988] [FLAC]\04 - Color Shock.wav
Peak level 87.3 %
Extraction speed 1.7 X
Track quality 100.0 %
Test CRC DFA43905
Copy CRC DFA43905
Accurately ripped (confidence 3) [0F0B7D04] (AR v2)
Copy OK
Track 5
Filename H:\(ripper)\Jesse Johnson - Every Shade Of Love [1988] [FLAC]\05 - Every Shade Of Love.wav
Pre-gap length 0:00:01.53
Peak level 78.5 %
Extraction speed 1.6 X
Track quality 99.9 %
Test CRC F4CE99A7
Copy CRC F4CE99A7
Accurately ripped (confidence 3) [CA938025] (AR v2)
Copy OK
Track 6
Filename H:\(ripper)\Jesse Johnson - Every Shade Of Love [1988] [FLAC]\06 - Everybody Wants Somebody To Love.wav
Pre-gap length 0:00:01.67
Peak level 91.1 %
Extraction speed 1.9 X
Track quality 100.0 %
Test CRC 83B907BD
Copy CRC 83B907BD
Accurately ripped (confidence 3) [EC1D97BC] (AR v2)
Copy OK
Track 7
Filename H:\(ripper)\Jesse Johnson - Every Shade Of Love [1988] [FLAC]\07 - I'm Just Wanting You.wav
Peak level 86.5 %
Extraction speed 2.1 X
Track quality 100.0 %
Test CRC 38759074
Copy CRC 38759074
Accurately ripped (confidence 3) [15653670] (AR v2)
Copy OK
Track 8
Filename H:\(ripper)\Jesse Johnson - Every Shade Of Love [1988] [FLAC]\08 - Stop-Look-Listen.wav
Pre-gap length 0:00:01.30
Peak level 91.7 %
Extraction speed 2.0 X
Track quality 100.0 %
Test CRC B425E1E7
Copy CRC B425E1E7
Accurately ripped (confidence 3) [2628CA90] (AR v2)
Copy OK
All tracks accurately ripped
No errors occurred
End of status report
---- CUETools DB Plugin V2.1.6
[CTDB TOCID: fvsqf1hauj8Cnjoq0FbbagMk0Pc-] found
Submit result: fvsqf1hauj8Cnjoq0FbbagMk0Pc- has been confirmed
Track | CTDB Status
1 | (9/9) Accurately ripped
2 | (9/9) Accurately ripped
3 | (8/9) Accurately ripped
4 | (9/9) Accurately ripped
5 | (9/9) Accurately ripped
6 | (9/9) Accurately ripped
7 | (9/9) Accurately ripped
8 | (8/9) Accurately ripped
==== Log checksum D74E61F7E0B6300B33E7115752FB64E22BF6E200DE961FCD04DD40B0FE487841 ====
 
Содержание индексной карты (.CUE)
REM GENRE R&B
REM DATE 1988
REM DISCID 6308E808
REM COMMENT "ExactAudioCopy v1.3"
PERFORMER "Jesse Johnson"
TITLE "Every Shade Of Love"
REM COMPOSER ""
FILE "01 - Lovestruck.wav" WAVE
TRACK 01 AUDIO
TITLE "Lovestruck"
PERFORMER "Jesse Johnson"
REM COMPOSER ""
INDEX 01 00:00:00
TRACK 02 AUDIO
TITLE "So Misunderstood"
PERFORMER "Jesse Johnson"
REM COMPOSER ""
INDEX 00 05:18:58
FILE "02 - So Misunderstood.wav" WAVE
INDEX 01 00:00:00
TRACK 03 AUDIO
TITLE "I'm The One"
PERFORMER "Jesse Johnson"
REM COMPOSER ""
INDEX 00 06:08:60
FILE "03 - I'm The One.wav" WAVE
INDEX 01 00:00:00
FILE "04 - Color Shock.wav" WAVE
TRACK 04 AUDIO
TITLE "Color Shock"
PERFORMER "Jesse Johnson"
REM COMPOSER ""
INDEX 01 00:00:00
TRACK 05 AUDIO
TITLE "Every Shade Of Love"
PERFORMER "Jesse Johnson"
REM COMPOSER ""
INDEX 00 03:43:32
FILE "05 - Every Shade Of Love.wav" WAVE
INDEX 01 00:00:00
TRACK 06 AUDIO
TITLE "Everybody Wants Somebody To Love"
PERFORMER "Jesse Johnson"
REM COMPOSER ""
INDEX 00 04:44:45
FILE "06 - Everybody Wants Somebody To Love.wav" WAVE
INDEX 01 00:00:00
FILE "07 - I'm Just Wanting You.wav" WAVE
TRACK 07 AUDIO
TITLE "I'm Just Wanting You"
PERFORMER "Jesse Johnson"
REM COMPOSER ""
INDEX 01 00:00:00
TRACK 08 AUDIO
TITLE "Stop-Look-Listen"
PERFORMER "Jesse Johnson"
REM COMPOSER ""
INDEX 00 05:43:60
FILE "08 - Stop-Look-Listen.wav" WAVE
INDEX 01 00:00:00
 
DR Log
foobar2000 1.1.10 / Dynamic Range Meter 1.1.1
log date: 2017-03-05 16:35:05
--------------------------------------------------------------------------------
Analyzed: Jesse Johnson / Every Shade Of Love
--------------------------------------------------------------------------------
DR Peak RMS Duration Track
--------------------------------------------------------------------------------
DR12 -0.60 dB -13.90 dB 5:20 ?-Lovestruck
DR12 -0.80 dB -14.18 dB 6:11 ?-So Misunderstood
DR13 -0.60 dB -14.84 dB 4:52 ?-I'm The One
DR12 -1.18 dB -14.79 dB 3:45 ?-Color Shock
DR14 -2.09 dB -17.17 dB 4:46 ?-Every Shade Of Love
DR12 -0.80 dB -14.69 dB 3:50 ?-Everybody Wants Somebody To Love
DR13 -1.26 dB -15.61 dB 5:45 ?-I'm Just Wanting You
DR12 -0.75 dB -14.34 dB 3:31 ?-Stop-Look-Listen
--------------------------------------------------------------------------------
Number of tracks: 8
Official DR value: DR12
Samplerate: 44100 Hz
Channels: 2
Bits per sample: 16
Bitrate: 899 kbps
Codec: FLAC
================================================================================
 
Состав
Drums, Percussion – John Paris
Producer, Songwriter [All Songs Written], Performer, Arranged By – Jesse Johnson
Saxophone [Saxophones] – Eddie Mininfield
Vocals – Kim Cage
Track 3
Backing Vocals – Ta Mara
Clavinet – Jeff Lorber
Track 5
Strings – Clare Fischer
http://murderpedia.org/male.J/j/johnson-jesse-lee.htm
Приватный:
Нет (DHT включён)
Размер:
243.27 Мб (255,086,080 байт) » файлов: 17
Участники:
0 раздают, 0 качают (0 участников всего)
Внешние участники:
1 раздают, 0 качают (1 участников всего) [ Обновить ]
Есть вопросы - пишите личное сообщение пользователю M0p94ok.
13:10
62
Нет комментариев. Ваш будет первым!