Поиск

(Jazz-Funk) [CD] Akira Ishikawa & Count Buffalos - Electrum - 1970 (2006 Japan Edition), FLAC (tracks+.cue), lossless

(Jazz-Funk) [CD] Akira Ishikawa & Count Buffalos - Electrum - 1970 (2006 Japan Edition), FLAC (tracks+.cue), lossless
Треклист:
Akira Ishikawa & Count Buffalos - Electrum
Жанр: Jazz-Funk
Носитель: CD
Страна-производитель диска (релиза): Япония
Год издания: 2006
Издатель (лейбл): Think! Records
Номер по каталогу: THCD-030
Аудиокодек: FLAC (*.flac)
Тип рипа: tracks+.cue
Битрейт аудио: lossless
Продолжительность: 41:17
Источник (релизер): velvetmomoko (what)
Наличие сканов в содержимом раздачи: нет
Треклист:
01. Electrum (20:56)
02. Revulsion (7:36)
03. Speak Under My Breath (5:37)
04. The Eyebrow (7:08)
Состав:
Akira Ishikawa - drums
Kiyoshi Sugimoto - electric guitar
Masahiko Satoh - piano, clavinet
Ken Muraoka - tenor saxophone, soprano saxophone
Hiromasa Suzuki - electric piano
Masaoki Terakawa - bass
Recorded on July 20 and August 4, 1970.
 
Лог создания рипа
Exact Audio Copy V1.0 beta 3 from 29. August 2011
EAC extraction logfile from 25. June 2013, 23:07
Akira Ishikawa & Count Buffalos / Electrum
Used drive : HL-DT-STDVDRAM GH60N Adapter: 5 ID: 0
Read mode : Secure
Utilize accurate stream : Yes
Defeat audio cache : Yes
Make use of C2 pointers : No
Read offset correction : 667
Overread into Lead-In and Lead-Out : No
Fill up missing offset samples with silence : Yes
Delete leading and trailing silent blocks : No
Null samples used in CRC calculations : Yes
Used interface : Native Win32 interface for Win NT & 2000
Gap handling : Appended to previous track
Used output format : User Defined Encoder
Selected bitrate : 128 kBit/s
Quality : High
Add ID3 tag : Yes
Command line compressor : C:\Program Files (x86)\Exact Audio Copy\Flac\flac.exe
Additional command line options : -8 -V -T "ARTIST=%artist%" -T "TITLE=%title%" -T "ALBUM=%albumtitle%" -T "DATE=%year%" -T "TRACKNUMBER=%tracknr%" -T "GENRE=%genre%" -T "PERFORMER=%albuminterpret%" -T "COMPOSER=%composer%" %haslyrics%--tag-from-file=LYRICS="%lyricsfile%"%haslyrics% -T "ALBUMARTIST=%albumartist%" -T "DISCNUMBER=%cdnumber%" -T "TOTALDISCS=%totalcds%" -T "TOTALTRACKS=%numtracks%" -T "COMMENT=%comment%" %source% -o %dest%
TOC of the extracted CD
Track | Start | Length | Start sector | End sector
---------------------------------------------------------
1 | 0:00.00 | 20:55.60 | 0 | 94184
2 | 20:55.60 | 7:36.28 | 94185 | 128412
3 | 28:32.13 | 5:36.72 | 128413 | 153684
4 | 34:09.10 | 7:07.65 | 153685 | 185774
Track 1
Filename C:\EAC rips\Akira Ishikawa & Count Buffalos - Electrum (1970) [FLAC]\01 - Electrum.wav
Pre-gap length 0:00:02.00
Peak level 97.9 %
Extraction speed 1.4 X
Track quality 100.0 %
Test CRC C542B000
Copy CRC C542B000
Track not present in AccurateRip database
Copy OK
Track 2
Filename C:\EAC rips\Akira Ishikawa & Count Buffalos - Electrum (1970) [FLAC]\02 - Revulsion.wav
Pre-gap length 0:00:03.66
Peak level 97.9 %
Extraction speed 1.7 X
Track quality 100.0 %
Test CRC E4A5E053
Copy CRC E4A5E053
Track not present in AccurateRip database
Copy OK
Track 3
Filename C:\EAC rips\Akira Ishikawa & Count Buffalos - Electrum (1970) [FLAC]\03 - Speak Under My Breath.wav
Pre-gap length 0:00:03.68
Peak level 97.9 %
Extraction speed 1.6 X
Track quality 99.9 %
Test CRC FD7C075F
Copy CRC FD7C075F
Track not present in AccurateRip database
Copy OK
Track 4
Filename C:\EAC rips\Akira Ishikawa & Count Buffalos - Electrum (1970) [FLAC]\04 - The Eyebrow.wav
Pre-gap length 0:00:03.66
Peak level 97.9 %
Extraction speed 1.8 X
Track quality 100.0 %
Test CRC 68181F94
Copy CRC 68181F94
Track not present in AccurateRip database
Copy OK
None of the tracks are present in the AccurateRip database
No errors occurred
End of status report
---- CUETools DB Plugin V2.1.3
[CTDB TOCID: smci_llS2ziCn.FOEkAAGURh4ko-] disk not present in database, Submit result: smci_llS2ziCn.FOEkAAGURh4ko- has been uploaded
==== Log checksum 03595184B752682B19251CBFE8FF874818F9DF5C8D87F823FC87A7C9C05FEA9C ====
 
Содержание индексной карты (.CUE)
REM GENRE Jazz
REM DATE 1970
REM DISCID 2609AD04
REM COMMENT "ExactAudioCopy v1.0b3"
PERFORMER "Akira Ishikawa & Count Buffalos"
TITLE "Electrum"
FILE "01 - Electrum.wav" WAVE
TRACK 01 AUDIO
TITLE "Electrum"
PERFORMER "Akira Ishikawa & Count Buffalos"
ISRC JPVI00627650
INDEX 01 00:00:00
TRACK 02 AUDIO
TITLE "Revulsion"
PERFORMER "Akira Ishikawa & Count Buffalos"
ISRC JPVI00627660
INDEX 00 20:52:10
FILE "02 - Revulsion.wav" WAVE
INDEX 01 00:00:00
TRACK 03 AUDIO
TITLE "Speak Under My Breath"
PERFORMER "Akira Ishikawa & Count Buffalos"
ISRC JPVI00627670
INDEX 00 07:32:52
FILE "03 - Speak Under My Breath.wav" WAVE
INDEX 01 00:00:00
TRACK 04 AUDIO
TITLE "The Eyebrow"
PERFORMER "Akira Ishikawa & Count Buffalos"
ISRC JPVI00627680
INDEX 00 05:33:22
FILE "04 - The Eyebrow.wav" WAVE
INDEX 01 00:00:00
 
Отчет CUETools
[CUETools log; Date: 07.07.2015 16:44:42; Version: 2.1.5]
[CTDB TOCID: smci_llS2ziCn.FOEkAAGURh4ko-] found.
Track | CTDB Status
1 | (1/1) Accurately ripped
2 | (1/1) Accurately ripped
3 | (1/1) Accurately ripped
4 | (1/1) Accurately ripped
[AccurateRip ID: 0008938a-00204e69-2609ad04] found.
Track [ CRC | V2 ] Status
01 [3ab1db69|9ac3d2f9] (0+2/2) Accurately ripped
02 [b277ae36|627ba7cb] (0+2/2) Accurately ripped
03 [f83b5070|bcd994ac] (0+2/2) Accurately ripped
04 [1975e8df|a6a37429] (0+2/2) Accurately ripped
Track Peak [ CRC32 ] [W/O NULL] [ LOG ]
-- 97,9 [41B8A35A] [BDADF37B]
01 97,9 [C542B000] [EC0D7BD7] CRC32
02 97,9 [E4A5E053] [4EC93DCF] CRC32
03 97,9 [FD7C075F] [7BA33878] CRC32
04 97,9 [68181F94] [1F104448] CRC32
Приватный:
Нет (DHT включён)
Размер:
282.62 Мб (296,353,235 байт) » файлов: 12
Участники:
0 раздают, 0 качают (0 участников всего)
Внешние участники:
5 раздают, 1 качают (6 участников всего) [ Обновить ]
Есть вопросы - пишите личное сообщение пользователю M0p94ok.
06:56
63
Нет комментариев. Ваш будет первым!