Поиск

(Disco, Funk, Soul) [CD] James Mason - Rhythm of Life - 1977 (2012 Japan Bonus Track Edition), FLAC (tracks+.cue), lossless

(Disco, Funk, Soul) [CD] James Mason - Rhythm of Life - 1977 (2012 Japan Bonus Track Edition), FLAC (tracks+.cue), lossless
Треклист:
James Mason - Rhythm of Life
Жанр: Disco, Funk, Soul
Носитель: CD
Страна-производитель диска (релиза): Япония
Год издания: 1977 (2012)
Издатель (лейбл): SHOUT! Productions
Номер по каталогу: SHOUT-245
Страна исполнителя (группы): США
Аудиокодек: FLAC (*.flac)
Тип рипа: tracks+.cue
Битрейт аудио: lossless
Продолжительность: 62:43
Источник (релизер): zulimo (what)
Наличие сканов в содержимом раздачи: нет
Треклист:
01. Sweet Power Your Embrace (5:27)
02. Good Thing (3:15)
03. Free (3:44)
04. Mbewe (2:31)
05. Funny Girl (4:21)
06. Slick City (3:04)
07. Rhythm of Life (6:13)
08. Hey Hey Hey (2:00)
09. I've Got My Eyes on You (3:39)
10. Dreams (3:27)
11. I Want Your Love (11:04)
12. Nightgruv (3:59)
13. Sweet Power Your Embrace (Single Edit) (4:15)
14. Sweet Power Your Embrace (Unreleased Mix 1977) (5:44)
 
Лог создания рипа
Exact Audio Copy V1.0 beta 3 from 29. August 2011
EAC extraction logfile from 24. August 2012, 23:34
James Mason / Rhythm Of Life
Used drive : PIONEER DVD-RW DVR-118L Adapter: 1 ID: 0
Read mode : Secure
Utilize accurate stream : Yes
Defeat audio cache : Yes
Make use of C2 pointers : No
Read offset correction : 6
Overread into Lead-In and Lead-Out : No
Fill up missing offset samples with silence : Yes
Delete leading and trailing silent blocks : No
Null samples used in CRC calculations : Yes
Used interface : Native Win32 interface for Win NT & 2000
Gap handling : Appended to previous track
Used output format : User Defined Encoder
Selected bitrate : 128 kBit/s
Quality : High
Add ID3 tag : No
Command line compressor : C:\Program Files\Exact Audio Copy\Flac\flac.exe
Additional command line options : -8 -V -T "ARTIST=%artist%" -T "TITLE=%title%" -T "ALBUM=%albumtitle%" -T "DATE=%year%" -T "TRACKNUMBER=%tracknr%" -T "GENRE=%genre%" -T "PERFORMER=%albuminterpret%" -T "COMPOSER=%composer%" %haslyrics%--tag-from-file=LYRICS="%lyricsfile%"%haslyrics% -T "ALBUMARTIST=%albumartist%" -T "DISCNUMBER=%cdnumber%" -T "TOTALDISCS=%totalcds%" -T "TOTALTRACKS=%numtracks%" -T "COMMENT=%comment%" %source% -o %dest%
TOC of the extracted CD
Track | Start | Length | Start sector | End sector
---------------------------------------------------------
1 | 0:00.00 | 5:26.57 | 0 | 24506
2 | 5:26.57 | 3:14.39 | 24507 | 39095
3 | 8:41.21 | 3:43.54 | 39096 | 55874
4 | 12:25.00 | 2:30.64 | 55875 | 67188
5 | 14:55.64 | 4:21.30 | 67189 | 86793
6 | 19:17.19 | 3:03.68 | 86794 | 100586
7 | 22:21.12 | 6:12.59 | 100587 | 128545
8 | 28:33.71 | 2:00.00 | 128546 | 137545
9 | 30:33.71 | 3:39.03 | 137546 | 153973
10 | 34:12.74 | 3:26.62 | 153974 | 169485
11 | 37:39.61 | 11:03.54 | 169486 | 219264
12 | 48:43.40 | 3:58.43 | 219265 | 237157
13 | 52:42.08 | 4:15.29 | 237158 | 256311
14 | 56:57.37 | 5:43.61 | 256312 | 282097
Track 1
Filename C:\EAC\01 - Sweet Power Your Embrace.wav
Pre-gap length 0:00:02.00
Peak level 100.0 %
Extraction speed 1.1 X
Track quality 100.0 %
Test CRC CBD0D7D0
Copy CRC CBD0D7D0
Track not present in AccurateRip database
Copy OK
Track 2
Filename C:\EAC\02 - Good Thing.wav
Pre-gap length 0:00:02.49
Peak level 100.0 %
Extraction speed 1.0 X
Track quality 99.9 %
Test CRC 9A263199
Copy CRC 9A263199
Track not present in AccurateRip database
Copy OK
Track 3
Filename C:\EAC\03 - Free.wav
Pre-gap length 0:00:02.49
Peak level 100.0 %
Extraction speed 1.3 X
Track quality 100.0 %
Test CRC 2CC599C7
Copy CRC 2CC599C7
Track not present in AccurateRip database
Copy OK
Track 4
Filename C:\EAC\04 - Mbewe.wav
Pre-gap length 0:00:02.49
Peak level 100.0 %
Extraction speed 1.3 X
Track quality 100.0 %
Test CRC D7E3AEA2
Copy CRC D7E3AEA2
Track not present in AccurateRip database
Copy OK
Track 5
Filename C:\EAC\05 - Funny Girl.wav
Pre-gap length 0:00:02.49
Peak level 100.0 %
Extraction speed 1.5 X
Track quality 100.0 %
Test CRC E55D41C9
Copy CRC E55D41C9
Track not present in AccurateRip database
Copy OK
Track 6
Filename C:\EAC\06 - Slick City.wav
Pre-gap length 0:00:02.49
Peak level 100.0 %
Extraction speed 1.3 X
Track quality 99.9 %
Test CRC C892DD4C
Copy CRC C892DD4C
Track not present in AccurateRip database
Copy OK
Track 7
Filename C:\EAC\07 - Rhythm Of Life.wav
Pre-gap length 0:00:02.49
Peak level 100.0 %
Extraction speed 1.6 X
Track quality 99.9 %
Test CRC 6B8A4355
Copy CRC 6B8A4355
Track not present in AccurateRip database
Copy OK
Track 8
Filename C:\EAC\08 - Hey Hey Hey.wav
Pre-gap length 0:00:02.48
Peak level 100.0 %
Extraction speed 1.5 X
Track quality 100.0 %
Test CRC D7D2D608
Copy CRC D7D2D608
Track not present in AccurateRip database
Copy OK
Track 9
Filename C:\EAC\09 - I've Got My Eyes On You.wav
Pre-gap length 0:00:02.49
Peak level 100.0 %
Extraction speed 1.7 X
Track quality 100.0 %
Test CRC EBEFE3A2
Copy CRC EBEFE3A2
Track not present in AccurateRip database
Copy OK
Track 10
Filename C:\EAC\10 - Dreams.wav
Pre-gap length 0:00:02.48
Peak level 100.0 %
Extraction speed 1.6 X
Track quality 99.9 %
Test CRC E7AC0A03
Copy CRC E7AC0A03
Track not present in AccurateRip database
Copy OK
Track 11
Filename C:\EAC\11 - I Want Your Love.wav
Pre-gap length 0:00:02.49
Peak level 100.0 %
Extraction speed 2.2 X
Track quality 100.0 %
Test CRC 667AD230
Copy CRC 667AD230
Track not present in AccurateRip database
Copy OK
Track 12
Filename C:\EAC\12 - Nightgruv.wav
Pre-gap length 0:00:02.49
Peak level 93.3 %
Extraction speed 2.1 X
Track quality 100.0 %
Test CRC 53D9AF16
Copy CRC 53D9AF16
Track not present in AccurateRip database
Copy OK
Track 13
Filename C:\EAC\13 - Sweet Power Your Embrace (Single Edit).wav
Pre-gap length 0:00:02.49
Peak level 100.0 %
Extraction speed 2.2 X
Track quality 100.0 %
Test CRC 63E8247F
Copy CRC 63E8247F
Track not present in AccurateRip database
Copy OK
Track 14
Filename C:\EAC\14 - Sweet Power Your Embrace (Unreleased Mix 1977).wav
Pre-gap length 0:00:02.49
Peak level 100.0 %
Extraction speed 2.3 X
Track quality 100.0 %
Test CRC 10E6A800
Copy CRC 10E6A800
Track not present in AccurateRip database
Copy OK
None of the tracks are present in the AccurateRip database
No errors occurred
End of status report
==== Log checksum 4FA2CB692B245EE8184E4948DA375BBCA259910036E00792B984233D3BF99C04 ====
 
Содержание индексной карты (.CUE)
REM GENRE Jazz
REM DATE 2012
REM DISCID C40EB10E
REM COMMENT "ExactAudioCopy v1.0b3"
PERFORMER "James Mason"
TITLE "Rhythm of Life"
FILE "01 - Sweet Power Your Embrace.wav" WAVE
TRACK 01 AUDIO
TITLE "Sweet Power Your Embrace"
PERFORMER "James Mason"
INDEX 01 00:00:00
TRACK 02 AUDIO
TITLE "Good Thing"
PERFORMER "James Mason"
INDEX 00 05:24:08
FILE "02 - Good Thing.wav" WAVE
INDEX 01 00:00:00
TRACK 03 AUDIO
TITLE "Free"
PERFORMER "James Mason"
INDEX 00 03:11:65
FILE "03 - Free.wav" WAVE
INDEX 01 00:00:00
TRACK 04 AUDIO
TITLE "Mbewe"
PERFORMER "James Mason"
INDEX 00 03:41:05
FILE "04 - Mbewe.wav" WAVE
INDEX 01 00:00:00
TRACK 05 AUDIO
TITLE "Funny Girl"
PERFORMER "James Mason"
INDEX 00 02:28:15
FILE "05 - Funny Girl.wav" WAVE
INDEX 01 00:00:00
TRACK 06 AUDIO
TITLE "Slick City"
PERFORMER "James Mason"
INDEX 00 04:18:56
FILE "06 - Slick City.wav" WAVE
INDEX 01 00:00:00
TRACK 07 AUDIO
TITLE "Rhythm of Life"
PERFORMER "James Mason"
INDEX 00 03:01:19
FILE "07 - Rhythm of Life.wav" WAVE
INDEX 01 00:00:00
TRACK 08 AUDIO
TITLE "Hey Hey Hey"
PERFORMER "James Mason"
INDEX 00 06:10:11
FILE "08 - Hey Hey Hey.wav" WAVE
INDEX 01 00:00:00
TRACK 09 AUDIO
TITLE "I've Got My Eyes on You"
PERFORMER "James Mason"
INDEX 00 01:57:26
FILE "09 - I've Got My Eyes on You.wav" WAVE
INDEX 01 00:00:00
TRACK 10 AUDIO
TITLE "Dreams"
PERFORMER "James Mason"
INDEX 00 03:36:30
FILE "10 - Dreams.wav" WAVE
INDEX 01 00:00:00
TRACK 11 AUDIO
TITLE "I Want Your Love"
PERFORMER "James Mason"
INDEX 00 03:24:13
FILE "11 - I Want Your Love.wav" WAVE
INDEX 01 00:00:00
TRACK 12 AUDIO
TITLE "Nightgruv"
PERFORMER "James Mason"
INDEX 00 11:01:05
FILE "12 - Nightgruv.wav" WAVE
INDEX 01 00:00:00
TRACK 13 AUDIO
TITLE "Sweet Power Your Embrace (Single Edit)"
PERFORMER "James Mason"
INDEX 00 03:55:69
FILE "13 - Sweet Power Your Embrace (Single Edit).wav" WAVE
INDEX 01 00:00:00
TRACK 14 AUDIO
TITLE "Sweet Power Your Embrace (Unreleased Mix 1977)"
PERFORMER "James Mason"
INDEX 00 04:12:55
FILE "14 - Sweet Power Your Embrace (Unreleased Mix 1977).wav" WAVE
INDEX 01 00:00:00
 
Отчет CUETools
[CUETools log; Date: 04.07.2015 15:32:37; Version: 2.1.5]
[CTDB TOCID: ziq0_yPne3hlwmhTDrvZ9ybcaUQ-] found.
Track | CTDB Status
1 | (1/1) Accurately ripped
2 | (1/1) Accurately ripped
3 | (1/1) Accurately ripped
4 | (1/1) Accurately ripped
5 | (1/1) Accurately ripped
6 | (1/1) Accurately ripped
7 | (1/1) Accurately ripped
8 | (1/1) Accurately ripped
9 | (1/1) Accurately ripped
10 | (1/1) Accurately ripped
11 | (1/1) Accurately ripped
12 | (1/1) Accurately ripped
13 | (1/1) Accurately ripped
14 | (1/1) Accurately ripped
[AccurateRip ID: 001de221-0142ccf5-c40eb10e] found.
Track [ CRC | V2 ] Status
01 [d2c04d46|8da8faa3] (0+3/3) Accurately ripped
02 [1043abbf|8a3b567b] (0+3/3) Accurately ripped
03 [32fd18c7|697a5dae] (0+3/3) Accurately ripped
04 [0111ff7c|aeb04588] (0+3/3) Accurately ripped
05 [436cb0fa|6240c36b] (0+3/3) Accurately ripped
06 [19fb9317|1d4b4569] (0+3/3) Accurately ripped
07 [9066130c|adb20ea5] (0+3/3) Accurately ripped
08 [4f319f94|bfcecfa2] (0+3/3) Accurately ripped
09 [46d1ece2|3d5425fb] (0+3/3) Accurately ripped
10 [41d6f6c9|78cb68f3] (0+3/3) Accurately ripped
11 [ad36e821|80f1d5a3] (0+3/3) Accurately ripped
12 [48375551|86ffa109] (0+3/3) Accurately ripped
13 [7027af05|d6bbf357] (0+3/3) Accurately ripped
14 [8d46a303|9111ffbb] (0+3/3) Accurately ripped
Track Peak [ CRC32 ] [W/O NULL] [ LOG ]
-- 100,0 [2CDF8C78] [510C281F]
01 100,0 [CBD0D7D0] [B1E97E93] CRC32
02 100,0 [9A263199] [0E9EDF09] CRC32
03 100,0 [2CC599C7] [C76A394C] CRC32
04 100,0 [D7E3AEA2] [FDD7F110] CRC32
05 100,0 [E55D41C9] [460DDDF0] CRC32
06 100,0 [C892DD4C] [8E4597F6] CRC32
07 100,0 [6B8A4355] [5A650785] CRC32
08 100,0 [D7D2D608] [B149430A] CRC32
09 100,0 [EBEFE3A2] [026D1A04] CRC32
10 100,0 [E7AC0A03] [B9AE4520] CRC32
11 100,0 [667AD230] [DBB77456] CRC32
12 93,3 [53D9AF16] [9C30C0BA] CRC32
13 100,0 [63E8247F] [EBB12CBB] CRC32
14 100,0 [10E6A800] [BEAF6551] CRC32
 
Review by Steve Huey
Jazz-funk fans, believe the hype: James Mason's Rhythm of Life is every bit the overlooked classic its small but fanatical cult following has built it up to be. Smoothly soulful (but not slick) and spiritually uplifting throughout, the album's blend of funky fusion and progressive R&B is hardly the stuff purist dreams are made of, but anyone who loves the deep grooves of Donald Byrd or Mason's former employer, Roy Ayers, will immediately understand why this is considered a masterpiece in acid jazz circles. Breezy ballads and ferocious up-tempo groovers alike benefit from Mason's sure sense of songcraft and his knack for full-bodied arrangements. Mason plays all the guitars and loads of vintage synths (two different ARPs and Fender Rhodes electric piano among them), so he's largely responsible for the instrumental meat of every track. And though he's a strong soloist when he chooses, his focus is more on creating luxurious textures and working the grooves. And work them he does -- the faster tracks are amazingly driving for the jazz-funk genre, taken at tempos that would be fast even for R&B or rock, with lots of frantically slapped bass from Gene Torres. Clarice Taylor's vocals are far more soulful than the charmingly amateurish jazz-funk norm; what's more, the songs -- all but one co-written by Ninoska Escobar -- aren't just perfunctory groove vehicles, but feel more substantially structured than is typical for the genre. At least four -- "Sweet Power Your Embrace," "Free," "Funny Girl," and "Slick City" -- have become rare-groove club standards, and the title cut is an absolute monster. Records like Rhythm of Life -- catchy, funky, richly textured, and utterly joyous -- are a huge reason the acid jazz movement came into being; since their virtues aren't as prized by hardcore jazzers, they might otherwise be consigned to oblivion. Thankfully, this one was rescued.
 
Состав
Produced by James Mason and Hank O'Neal
Arranged by James Mason
All tracks written by James Mason and Ninoska Escobar, except for tracks 04 by James Mason (James Mason Music BMI)
Recorded at Downtown Studio, N.Y.C.
Tracks 01 to 10: originally released as Chiaroscuro LP CR-189, 1977
Track 13: originally released as Chiaroscuro 7inch CRDJ-1891
Track 14: unreleased version mixed at Sigma Sound Studio, Philadelphia
(P) 1977 Chiaroscuro Records
[Personnel]
James Mason: Guitar, Piano, Fender Rhodes, ARP Odyssey, ARP String Ensemble, and Vocals on track 08
Clarice Taylor: Lead Vocals
Mbewe Ninoska Escobar: Background Vocals
Justo Almario: Saxophone
Philip Woo: Piano on tracks 04 and 08
Gene Torres: Bass
Narada Michael Walden: Drums on tracks: 01, 02, 03, 04, 05, 06, 08, 10, 13 and 14
Dwayne Perdue: Drums on tracks 07 and 09
Mustafa Khaliq Ahmed: Conga
Tracks 11 and 12
Produced and arranged by James Mason
Written by James Mason (James Mason Music BMI)
Track 12 was recorded in 1984
Originally released as Mighty Fine MFR-003, 1996
(P) 1996 James Mason
Digitally re-mastered by Kazuhiro Yamagata for CD DESIGN, Inc.
Re-issue produced by Ken Tsukamoto
Приватный:
Нет (DHT включён)
Размер:
423.64 Мб (444,218,550 байт) » файлов: 22
Участники:
0 раздают, 0 качают (0 участников всего)
Внешние участники:
7 раздают, 2 качают (9 участников всего) [ Обновить ]
Есть вопросы - пишите личное сообщение пользователю M0p94ok.
06:56
58
Нет комментариев. Ваш будет первым!