Поиск

(Soul, Funk) [CD] Melanie Durrant - Anticipation - 2015, FLAC (tracks+.cue), lossless

(Soul, Funk) [CD] Melanie Durrant - Anticipation - 2015, FLAC (tracks+.cue), lossless
Треклист:
Melanie Durrant / Anticipation
Жанр: Soul, Funk
Носитель: CD
Страна-производитель диска (релиза): Canada
Год издания: 2015
Издатель (лейбл): Melo-D's Inc
Страна исполнителя (группы): Canada
Аудиокодек: FLAC (*.flac)
Тип рипа: tracks+.cue
Битрейт аудио: lossless
Продолжительность: 36:00
Источник (релизер): Audio CD
Наличие сканов в содержимом раздачи: нет
Треклист:
01 By Your Side (02:41)
02 Wait (03:21)
03 Life Goes On (Since You've Been Gone) (03:16)
04 Ain't Coming Back (03:27)
05 Blackbox (02:42)
06 Four Seasons (03:41)
07 Gone (03:46)
08 Anticipation (02:45)
09 Sunburn (03:26)
10 Mr. Wonderful (03:58)
11 Goodbye (02:59)
 
Лог создания рипа
CUERipper v2.1.5 Copyright (C) 2008-13 Grigory Chudov
EAC extraction logfile from 1. April 2015, 17:40
Melanie Durrant / Anticipation
Used drive : hp CDDVDW SU-208FB Adapter: 1 ID: 0
Read mode : Secure
Utilize accurate stream : Yes
Defeat audio cache : Yes
Make use of C2 pointers : No
Read offset correction : 6
Overread into Lead-In and Lead-Out : No
Fill up missing offset samples with silence : Yes
Delete leading and trailing silent blocks : No
Null samples used in CRC calculations : Yes
Used interface : Native Win32 interface for Win NT & 2000
Gap handling : Appended to previous track
Used output format : Internal WAV Routines
Sample format : 44.100 Hz; 16 Bit; Stereo
TOC of the extracted CD
Track | Start | Length | Start sector | End sector
---------------------------------------------------------
1 | 0:00.00 | 2:40.46 | 0 | 12045
2 | 2:40.46 | 3:20.70 | 12046 | 27115
3 | 6:01.41 | 3:16.08 | 27116 | 41823
4 | 9:17.49 | 3:26.53 | 41824 | 57326
5 | 12:44.27 | 2:41.47 | 57327 | 69448
6 | 15:25.74 | 3:40.41 | 69449 | 85989
7 | 19:06.40 | 3:45.57 | 85990 | 102921
8 | 22:52.22 | 2:45.13 | 102922 | 115309
9 | 25:37.35 | 3:25.58 | 115310 | 130742
10 | 29:03.18 | 3:57.44 | 130743 | 148561
11 | 33:00.62 | 2:58.64 | 148562 | 161975
Track 1
Filename C:\Users\RantNRave\Music\Melanie Durrant\01. By Your Side.wav
Pre-gap length 0:00:02.00
Peak level 98.8 %
Track quality 100.0 %
Test CRC C51B1A27
Copy CRC C51B1A27
Track not present in AccurateRip database
Copy OK
Track 2
Filename C:\Users\RantNRave\Music\Melanie Durrant\02. Wait.wav
Peak level 98.8 %
Track quality 100.0 %
Test CRC 5B4EC9ED
Copy CRC 5B4EC9ED
Track not present in AccurateRip database
Copy OK
Track 3
Filename C:\Users\RantNRave\Music\Melanie Durrant\03. Life Goes On (Since You've Been Gone).wav
Peak level 98.8 %
Track quality 100.0 %
Test CRC D38CAC30
Copy CRC D38CAC30
Track not present in AccurateRip database
Copy OK
Track 4
Filename C:\Users\RantNRave\Music\Melanie Durrant\04. Ain't Coming Back.wav
Peak level 98.8 %
Track quality 100.0 %
Test CRC CBC0CA7B
Copy CRC CBC0CA7B
Track not present in AccurateRip database
Copy OK
Track 5
Filename C:\Users\RantNRave\Music\Melanie Durrant\05. Blackbox.wav
Peak level 98.8 %
Track quality 100.0 %
Test CRC 140F3798
Copy CRC 140F3798
Track not present in AccurateRip database
Copy OK
Track 6
Filename C:\Users\RantNRave\Music\Melanie Durrant\06. Four Seasons.wav
Peak level 98.8 %
Track quality 100.0 %
Test CRC 13DA6CCA
Copy CRC 13DA6CCA
Track not present in AccurateRip database
Copy OK
Track 7
Filename C:\Users\RantNRave\Music\Melanie Durrant\07. Gone.wav
Peak level 98.8 %
Track quality 100.0 %
Test CRC D7D4BA5E
Copy CRC D7D4BA5E
Track not present in AccurateRip database
Copy OK
Track 8
Filename C:\Users\RantNRave\Music\Melanie Durrant\08. Anticipation.wav
Peak level 98.8 %
Track quality 100.0 %
Test CRC 08D84123
Copy CRC 08D84123
Track not present in AccurateRip database
Copy OK
Track 9
Filename C:\Users\RantNRave\Music\Melanie Durrant\09. Sunburn.wav
Peak level 98.8 %
Track quality 100.0 %
Test CRC 5328EA3D
Copy CRC 5328EA3D
Track not present in AccurateRip database
Copy OK
Track 10
Filename C:\Users\RantNRave\Music\Melanie Durrant\10. Mr. Wonderful.wav
Peak level 98.8 %
Track quality 100.0 %
Test CRC 3A7778BE
Copy CRC 3A7778BE
Track not present in AccurateRip database
Copy OK
Track 11
Filename C:\Users\RantNRave\Music\Melanie Durrant\11. Goodbye.wav
Peak level 98.8 %
Track quality 100.0 %
Test CRC B1B326E4
Copy CRC B1B326E4
Track not present in AccurateRip database
Copy OK
None of the tracks are present in the AccurateRip database
No errors occurred
End of status report
 
Содержание индексной карты (.CUE)
REM DISCID A3086F0B
PERFORMER "Melanie Durrant"
TITLE "Anticipation"
REM DATE 2015
REM GENRE "Soul"
REM COMMENT "CUERipper v2.1.5 Copyright (C) 2008-13 Grigory Chudov"
FILE "01. By Your Side.flac" WAVE
TRACK 01 AUDIO
PERFORMER "Melanie Durrant"
TITLE "By Your Side"
INDEX 01 00:00:00
FILE "02. Wait.flac" WAVE
TRACK 02 AUDIO
PERFORMER "Melanie Durrant"
TITLE "Wait"
INDEX 01 00:00:00
FILE "03. Life Goes On (Since You've Been Gone).flac" WAVE
TRACK 03 AUDIO
PERFORMER "Melanie Durrant"
TITLE "Life Goes On (Since You've Been Gone)"
INDEX 01 00:00:00
FILE "04. Ain't Coming Back.flac" WAVE
TRACK 04 AUDIO
PERFORMER "Melanie Durrant"
TITLE "Ain't Coming Back"
INDEX 01 00:00:00
FILE "05. Blackbox.flac" WAVE
TRACK 05 AUDIO
PERFORMER "Melanie Durrant"
TITLE "Blackbox"
INDEX 01 00:00:00
FILE "06. Four Seasons.flac" WAVE
TRACK 06 AUDIO
PERFORMER "Melanie Durrant"
TITLE "Four Seasons"
INDEX 01 00:00:00
FILE "07. Gone.flac" WAVE
TRACK 07 AUDIO
PERFORMER "Melanie Durrant"
TITLE "Gone"
INDEX 01 00:00:00
FILE "08. Anticipation.flac" WAVE
TRACK 08 AUDIO
PERFORMER "Melanie Durrant"
TITLE "Anticipation"
INDEX 01 00:00:00
FILE "09. Sunburn.flac" WAVE
TRACK 09 AUDIO
PERFORMER "Melanie Durrant"
TITLE "Sunburn"
INDEX 01 00:00:00
FILE "10. Mr. Wonderful.flac" WAVE
TRACK 10 AUDIO
PERFORMER "Melanie Durrant"
TITLE "Mr. Wonderful"
INDEX 01 00:00:00
FILE "11. Goodbye.flac" WAVE
TRACK 11 AUDIO
PERFORMER "Melanie Durrant"
TITLE "Goodbye"
INDEX 01 00:00:00
 
Лог проверки качества
-----------------------
DON'T MODIFY THIS FILE
-----------------------
PERFORMER: auCDtect Task Manager, ver. 1.6.0 RC1 build 1.6.0.1
Copyright (c) 2008-2010 y-soft. All rights reserved
http://y-soft.org
ANALYZER: auCDtect: CD records authenticity detector, version 0.8.2
Copyright (c) 2004 Oleg Berngardt. All rights reserved.
Copyright (c) 2004 Alexander Djourik. All rights reserved.
FILE: 11. Goodbye.flac
Size: 20629759 Hash: CC5966CFC8126738A1B24FF5A34414E4 Accuracy: -m0
Conclusion: CDDA 100%
Signature: 6E6F21CF942BD76D66C306C7026E349BAB4B7717
FILE: 10. Mr. Wonderful.flac
Size: 27741743 Hash: AC8088F0E3F47F8F46CF0C220BB0C2AC Accuracy: -m0
Conclusion: CDDA 100%
Signature: 480E44B35C19A3C3AD2991745E0D5DA2A8A6995E
FILE: 09. Sunburn.flac
Size: 23867825 Hash: 9BF8C0CE1EA5773A21350364A43BD89E Accuracy: -m0
Conclusion: CDDA 100%
Signature: E1B85114F056FBD802C325D2B549F825F9B83615
FILE: 08. Anticipation.flac
Size: 19361573 Hash: 4A88A21D09C979CDD2B0DF74D5297E59 Accuracy: -m0
Conclusion: CDDA 100%
Signature: 9F9ADC674A17FB209F6C78FECADB97AFB4855A90
FILE: 07. Gone.flac
Size: 26361670 Hash: 99C5A7B3DF0A081C450076704CD1EAB7 Accuracy: -m0
Conclusion: CDDA 100%
Signature: D16E8C0A459B5BC54B176669FA24592B2F4FE746
FILE: 06. Four Seasons.flac
Size: 27749979 Hash: EBAA287292E169A878806439963F9B71 Accuracy: -m0
Conclusion: CDDA 100%
Signature: F619477746E9FDE20EF3FE7795CE994F2EEC2B27
FILE: 05. Blackbox.flac
Size: 18473344 Hash: 318EFA0E7FCED9592388127326EA84C7 Accuracy: -m0
Conclusion: CDDA 99%
Signature: F27D03F78663D164722FF8068B6A49D12BCED685
FILE: 04. Ain't Coming Back.flac
Size: 24031605 Hash: 2D3A5A9B26B031130A37A9E994C3C45D Accuracy: -m0
Conclusion: CDDA 100%
Signature: 75AB5A1E8795030694DDFE8024BCB9FCC940E6FE
FILE: 03. Life Goes On (Since You've Been Gone).flac
Size: 24550188 Hash: 968BF5AC326CA171F9C19C912BCD3618 Accuracy: -m0
Conclusion: CDDA 100%
Signature: A6965CBCD24188C0C6556C44C36D09642942FD2B
FILE: 02. Wait.flac
Size: 24899366 Hash: 9245F1D187791BA7790B35893215091E Accuracy: -m0
Conclusion: CDDA 100%
Signature: B0FF966F4E48826F47C6145C18BA5944F91536E5
FILE: 01. By Your Side.flac
Size: 20534508 Hash: AB039688D91B51CFD0D7185E0040C498 Accuracy: -m0
Conclusion: CDDA 100%
Signature: 837191F44BB787603A193486970B29D7B8994FF9
 
Об исполнителе (группе)
Melanie Durrant (born in Toronto) is a Canadian urban contemporary-style singer. She attended the Earl Haig School of the Arts and also trained at the Royal Conservatory of Music. Melanie Durrant has received multiple accolades though out her career. She was nominated in several categories at the 2004 Canadian Urban Music Awards and at the MuchMusic Video Awards. Melanie Durrant has collaborated with artists such as Kardinal Offishall, Choclair, Common and Slakah The Beatchild. She has shared the stage alongside Jay-Z, 50cent, Jill Scott and Sean Paul.
Durrant has also been involved with numerous educational initiatives, such as headlining the 'HipHop4Africa' Mandela Children's Fund Canada and CapAids February 2006 Toronto benefit which was hosted by George Stroumboulopoulos. Deejay Ra, who interviewed Melanie for the event's DVD, also did a live reading at the sold-out event as part of his 'Hip-Hop Literacy' program, promoting Mandela and Tupac books to the students in attendance.
In 2013, Durrant's reggae influenced lovers rock single, "Made For Love" was nominated for Reggae Single of Year for the 2013 Juno Awards. Then in 2014, "Gone" was Durrant's second release in as many years to be recognized by the Canadian Academy of Recording Arts and Sciences (CARAS) at the JUNO Awards. She then received her third consecutive nomination for "Four Seasons" as a 2015 JUNO Award-nominee for R&B/Soul Recording of the Year.
On 17 February 2015 Durrant released her sophomore album entitled "Anticipation". The album was released through her own independent imprint Melo-D's Inc. Anticipation was well received and charted in the No. 5 spot on iTunes Canada for R&B/Soul album
Приватный:
Нет (DHT включён)
Размер:
246.34 Мб (258,310,571 байт) » файлов: 15
Участники:
0 раздают, 0 качают (0 участников всего)
Внешние участники:
1 раздают, 0 качают (1 участников всего) [ Обновить ]
Есть вопросы - пишите личное сообщение пользователю M0p94ok.
06:57
71
Нет комментариев. Ваш будет первым!