Поиск

(Jazz-Funk, Afrobeat, Free Jazz) [CD] Famoudou Don Moye Sun Percussion Summit And More - For BoBo (Oscar Brown III) - 1998, FLAC (tracks+.cue), lossless

(Jazz-Funk, Afrobeat, Free Jazz) [CD] Famoudou Don Moye Sun Percussion Summit And More - For BoBo (Oscar Brown III) - 1998, FLAC (tracks+.cue), lossless
Треклист:
Famoudou Don Moye Sun Percussion Summit And More / For BoBo (Oscar Brown III)
Жанр: Jazz-Funk, Afrobeat, Free Jazz
Носитель: CD
Страна-производитель диска: US
Год издания: 1998
Издатель (лейбл): AECO Records / Katalyst Entertainment
Номер по каталогу: FDM2581
Страна: US
Аудиокодек: FLAC (*.flac)
Тип рипа: tracks+.cue
Битрейт аудио: lossless
Продолжительность: 65:48
Источник (релизер): свой фирменный диск
Наличие сканов в содержимом раздачи:
Треклист:
1. Avotja "Oasis At Dusk"
2. Bald Head Gerald
3. For Us
4. Surreal
5. Treibhaus Tribal Stomp
6. No Time Left
7. Missing Link
8. By The Rivers Of Babylon
 
Лог создания рипа
Exact Audio Copy V1.0 beta 3 from 29. August 2011
EAC extraction logfile from 10. March 2014, 13:20
Famoudou Don Moye Sun Percussion Summit And More / For BoBo (Oscar Brown III)
Used drive : PIONEER DVD-RW DVR-115D Adapter: 0 ID: 0
Read mode : Secure
Utilize accurate stream : Yes
Defeat audio cache : Yes
Make use of C2 pointers : No
Read offset correction : 48
Overread into Lead-In and Lead-Out : No
Fill up missing offset samples with silence : Yes
Delete leading and trailing silent blocks : No
Null samples used in CRC calculations : Yes
Used interface : Installed external ASPI interface
Gap handling : Appended to previous track
Used output format : User Defined Encoder
Selected bitrate : 896 kBit/s
Quality : High
Add ID3 tag : No
Command line compressor : C:\Program Files\Exact Audio Copy\FLAC\FLAC.EXE
Additional command line options : -6 -V -T "ARTIST=%artist%" -T "TITLE=%title%" -T "ALBUM=%albumtitle%" -T "DATE=%year%" -T "TRACKNUMBER=%tracknr%" -T "GENRE=%genre%" -T "COMMENT=%comment%" -T "BAND=%albuminterpret%" -T "COMPOSER=%composer%" %haslyrics%--tag-from-file=LYRICS="%lyricsfile%"%haslyrics% -T "DISCNUMBER=%cdnumber%" -T "TOTALDISCS=%totalcds%" -T "TOTALTRACKS=%numtracks%" %hascover%--picture="%coverfile%"%hascover% %source% -o %dest%
TOC of the extracted CD
Track | Start | Length | Start sector | End sector
---------------------------------------------------------
1 | 0:00.00 | 12:58.35 | 0 | 58384
2 | 12:58.35 | 8:29.37 | 58385 | 96596
3 | 21:27.72 | 5:11.09 | 96597 | 119930
4 | 26:39.06 | 6:49.15 | 119931 | 150620
5 | 33:28.21 | 12:52.67 | 150621 | 208587
6 | 46:21.13 | 5:26.26 | 208588 | 233063
7 | 51:47.39 | 6:39.51 | 233064 | 263039
8 | 58:27.15 | 7:21.00 | 263040 | 296114
Track 1
Filename D:\zzz\01 - Avotja ''Oasis At Dusk''.wav
Pre-gap length 0:00:02.00
Peak level 94.5 %
Extraction speed 5.2 X
Track quality 100.0 %
Test CRC 30930FB2
Copy CRC 30930FB2
Cannot be verified as accurate (confidence 1) [C20CDDCB], AccurateRip returned [E2D0DE87] (AR v2)
Copy OK
Track 2
Filename D:\zzz\02 - Bald Head Gerald.wav
Peak level 94.6 %
Extraction speed 6.1 X
Track quality 100.0 %
Test CRC AA83E214
Copy CRC AA83E214
Cannot be verified as accurate (confidence 1) [C5307F00], AccurateRip returned [52093B8D] (AR v2)
Copy OK
Track 3
Filename D:\zzz\03 - For Us.wav
Peak level 95.0 %
Extraction speed 6.3 X
Track quality 100.0 %
Test CRC 61B4C432
Copy CRC 61B4C432
Cannot be verified as accurate (confidence 1) [BC03E9FA], AccurateRip returned [BDDE139E] (AR v2)
Copy OK
Track 4
Filename D:\zzz\04 - Surreal.wav
Peak level 96.5 %
Extraction speed 6.9 X
Track quality 100.0 %
Test CRC 43E90D7F
Copy CRC 43E90D7F
Cannot be verified as accurate (confidence 1) [57515CDA], AccurateRip returned [C7574F55] (AR v2)
Copy OK
Track 5
Filename D:\zzz\05 - Treibhaus Tribal Stomp.wav
Peak level 98.7 %
Extraction speed 7.5 X
Track quality 99.9 %
Test CRC AF3D9D6A
Copy CRC AF3D9D6A
Cannot be verified as accurate (confidence 1) [E7FC0994], AccurateRip returned [D431504A] (AR v2)
Copy OK
Track 6
Filename D:\zzz\06 - No Time Left.wav
Peak level 96.1 %
Extraction speed 7.2 X
Track quality 99.9 %
Test CRC 57ADE22B
Copy CRC 57ADE22B
Cannot be verified as accurate (confidence 1) [CBB5A014], AccurateRip returned [C8D36396] (AR v2)
Copy OK
Track 7
Filename D:\zzz\07 - Missing Link.wav
Peak level 95.0 %
Extraction speed 7.7 X
Track quality 99.9 %
Test CRC F2E8C676
Copy CRC F2E8C676
Cannot be verified as accurate (confidence 1) [72CFF0C5], AccurateRip returned [76F3A5DE] (AR v2)
Copy OK
Track 8
Filename D:\zzz\08 - By The Rivers Of Babylon.wav
Peak level 98.7 %
Extraction speed 8.8 X
Track quality 100.0 %
Test CRC DC262F02
Copy CRC DC262F02
Cannot be verified as accurate (confidence 1) [B446ED28], AccurateRip returned [BA951240] (AR v2)
Copy OK
No tracks could be verified as accurate
You may have a different pressing from the one(s) in the database
No errors occurred
End of status report
==== Log checksum D47C3D545E2B8750A75892B7AC0FBE088CEC2FDD78E6311E75217F8EA5F6BE04 ====
 
Содержание индексной карты (.CUE)
REM GENRE Afro-Funk
REM DATE 1998
REM DISCID 620F6C08
REM COMMENT "ExactAudioCopy v1.0b3"
PERFORMER "Famoudou Don Moye Sun Percussion Summit And More"
TITLE "For BoBo (Oscar Brown III)"
FILE "01 - Avotja ''Oasis At Dusk''.wav" WAVE
TRACK 01 AUDIO
TITLE "Avotja 'Oasis At Dusk'"
PERFORMER "Famoudou Don Moye Sun Percussion Summit And More"
INDEX 01 00:00:00
FILE "02 - Bald Head Gerald.wav" WAVE
TRACK 02 AUDIO
TITLE "Bald Head Gerald"
PERFORMER "Famoudou Don Moye Sun Percussion Summit And More"
INDEX 01 00:00:00
FILE "03 - For Us.wav" WAVE
TRACK 03 AUDIO
TITLE "For Us"
PERFORMER "Famoudou Don Moye Sun Percussion Summit And More"
INDEX 01 00:00:00
FILE "04 - Surreal.wav" WAVE
TRACK 04 AUDIO
TITLE "Surreal"
PERFORMER "Famoudou Don Moye Sun Percussion Summit And More"
INDEX 01 00:00:00
FILE "05 - Treibhaus Tribal Stomp.wav" WAVE
TRACK 05 AUDIO
TITLE "Treibhaus Tribal Stomp"
PERFORMER "Famoudou Don Moye Sun Percussion Summit And More"
INDEX 01 00:00:00
FILE "06 - No Time Left.wav" WAVE
TRACK 06 AUDIO
TITLE "No Time Left"
PERFORMER "Famoudou Don Moye Sun Percussion Summit And More"
INDEX 01 00:00:00
FILE "07 - Missing Link.wav" WAVE
TRACK 07 AUDIO
TITLE "Missing Link"
PERFORMER "Famoudou Don Moye Sun Percussion Summit And More"
INDEX 01 00:00:00
FILE "08 - By The Rivers Of Babylon.wav" WAVE
TRACK 08 AUDIO
TITLE "By The Rivers Of Babylon"
PERFORMER "Famoudou Don Moye Sun Percussion Summit And More"
INDEX 01 00:00:00
 
Лог проверки качества
d:\>d:\aucdtect -d/-m0 d:\zzz\*.wav
auCDtect: CD records authenticity detector, version 0.8.2
Copyright (c) 2004 Oleg Berngardt. All rights reserved.
Copyright (c) 2004 Alexander Djourik. All rights reserved.
------------------------------------------------------------
Processing file: [01. Avotja 'Oasis At Dusk'.wav]
------------------------------------------------------------
This track looks like CDDA with probability 99%
------------------------------------------------------------
Processing file: [02. Bald Head Gerald.wav]
------------------------------------------------------------
This track looks like CDDA with probability 99%
------------------------------------------------------------
Processing file: [03. For Us.wav]
------------------------------------------------------------
This track looks like CDDA with probability 100%
------------------------------------------------------------
Processing file: [04. Surreal.wav]
------------------------------------------------------------
This track looks like CDDA with probability 100%
------------------------------------------------------------
Processing file: [05. Treibhaus Tribal Stomp.wav]
------------------------------------------------------------
This track looks like CDDA with probability 99%
------------------------------------------------------------
Processing file: [06. No Time Left.wav]
------------------------------------------------------------
This track looks like CDDA with probability 99%
------------------------------------------------------------
Processing file: [07. Missing Link.wav]
------------------------------------------------------------
This track looks like CDDA with probability 100%
------------------------------------------------------------
Processing file: [08. By The Rivers Of Babylon.wav]
------------------------------------------------------------
This track looks like CDDA with probability 100%
------------------------------------------------------------
Final Conclusion:
------------------------------------------------------------
These tracks looks like CDDA with probability 100%
Доп. информация:
 
Album Info
(Don Moye) - 1
(Ari Brown) - 2
(Meshach Silas) - 3
(Joel Brandon) - 4
(Joseph Jarman / Famoudou Don Moye) - 5
(Chico Freeman) - 6
(Charles "Chuck-a-luck" Hosch) - 7
(Traditional) - 8
All songs arranged by Joel Brandon & Famoudou Don Moye, except 3. arranged by Meshach Silas
Executive producer: Famoudou Don Moye
Produced by: Famoudou Don Moye & Donalonzo Beauchamp
Musical director: Joel Brandon
Recorded: October 1997
Recorded at: Hair Bear Studios, Chicago
Engineer: Jeff Islinger
Mixed: January 1998
Mixed by: Famoudou Don Moye, Joel Brandon & Donalonzo Beauchamp
 
Состав
Don Moye: drums, djembe, percussion, vocals
Joel Brandon: flute, whistling, vocals
Ari Brown: saxophone
Herb Walker: guitar
Calvin "Koco" Brunson: keyboard, vocals
Enoch Williamson: congas, djembe, percussion
Meshach Silas: djembe, timbales, percussion, vocals
Selah Allen: chekere, percussion, vocals
Babu Atiba: djembe
13:53
338
Нет комментариев. Ваш будет первым!