Поиск

(African Jazz, Post-Bop, World Fusion) [CD] Dollar Brand (Abdullah Ibrahim) - African Piano - 1969 (2011 Japan Edition), FLAC (tracks+.cue), lossless

(African Jazz, Post-Bop, World Fusion) [CD] Dollar Brand (Abdullah Ibrahim) - African Piano - 1969 (2011 Japan Edition), FLAC (tracks+.cue), lossless
Dollar Brand (Abdullah Ibrahim) - African Piano
Жанр: African Jazz, Post-Bop, World Fusion
Носитель: CD
Страна-производитель диска: Япония
Год издания: 2011
Издатель (лейбл): ECM/Universal
Номер по каталогу: UCCU-6122
Аудиокодек: FLAC (*.flac)
Тип рипа: tracks+.cue
Битрейт аудио: lossless
Продолжительность: 38:36
Источник (релизер): JJKWCD (what)
Наличие сканов в содержимом раздачи: да
Треклист:
01. Bra Joe from Kilimanjaro (Brand) - 11:06
02. Selby That the Eternal Spirit Is the Only Reality (Brand) - 2:23
03. The Moon (Brand) - 8:08
04. Xaba (Brand) - 0:40
05. Sunset in Blue (Brand) - 4:25
06. Kippy (Brand) - 5:05
07. Jabulani (Easter Joy) (Brand) - 2:07
08. Tintiyana (Brand) - 4:42
Состав:
Abdullah Ibrahim - piano
Recorded live at Jazzhus Montmartre, Copenhagen on October 22, 1969.
 
Лог создания рипа
Exact Audio Copy V1.0 beta 3 from 29. August 2011
EAC extraction logfile from 13. March 2014, 7:05
Dollar Brand / African Piano
Used drive : HL-DT-STDVDRAM GH24NS50 Adapter: 2 ID: 1
Read mode : Secure
Utilize accurate stream : Yes
Defeat audio cache : Yes
Make use of C2 pointers : No
Read offset correction : 667
Overread into Lead-In and Lead-Out : No
Fill up missing offset samples with silence : Yes
Delete leading and trailing silent blocks : No
Null samples used in CRC calculations : Yes
Used interface : Native Win32 interface for Win NT & 2000
Gap handling : Appended to previous track
Used output format : User Defined Encoder
Selected bitrate : 1024 kBit/s
Quality : High
Add ID3 tag : No
Command line compressor : D:\Program Files\FLAC\flac.exe
Additional command line options : -8 -V -T "ARTIST=%artist%" -T "TITLE=%title%" -T "ALBUM=%albumtitle%" -T "DATE=%year%" -T "TRACKNUMBER=%tracknr%" -T "GENRE=%genre%" -T "PERFORMER=%albuminterpret%" -T "COMPOSER=%composer%" %haslyrics%--tag-from-file=LYRICS="%lyricsfile%"%haslyrics% -T "ALBUMARTIST=%albumartist%" -T "DISCNUMBER=%cdnumber%" -T "TOTALDISCS=%totalcds%" -T "TOTALTRACKS=%numtracks%" -T "COMMENT=%comment%" %source% -o %dest%
TOC of the extracted CD
Track | Start | Length | Start sector | End sector
---------------------------------------------------------
1 | 0:00.00 | 11:06.05 | 0 | 49954
2 | 11:06.05 | 2:23.02 | 49955 | 60681
3 | 13:29.07 | 8:08.08 | 60682 | 97289
4 | 21:37.15 | 0:40.35 | 97290 | 100324
5 | 22:17.50 | 4:25.17 | 100325 | 120216
6 | 26:42.67 | 5:05.10 | 120217 | 143101
7 | 31:48.02 | 2:06.45 | 143102 | 152596
8 | 33:54.47 | 4:42.30 | 152597 | 173776
Track 1
Filename D:\01 - Bra Joe from Kilimanjaro.wav
Pre-gap length 0:00:02.00
Peak level 80.2 %
Extraction speed 1.2 X
Track quality 100.0 %
Test CRC E3D6C82D
Copy CRC E3D6C82D
Accurately ripped (confidence 6) [A3B802FB] (AR v2)
Copy OK
Track 2
Filename D:\02 - Selby That the Eternal Spirit Is the Only Reality.wav
Peak level 66.8 %
Extraction speed 1.1 X
Track quality 100.0 %
Test CRC 3687D507
Copy CRC 3687D507
Accurately ripped (confidence 6) [E579623C] (AR v2)
Copy OK
Track 3
Filename D:\03 - The Moon.wav
Peak level 78.2 %
Extraction speed 1.5 X
Track quality 100.0 %
Test CRC A9DEDADE
Copy CRC A9DEDADE
Accurately ripped (confidence 6) [B136D809] (AR v2)
Copy OK
Track 4
Filename D:\04 - Xaba.wav
Peak level 57.9 %
Extraction speed 0.5 X
Track quality 99.7 %
Test CRC C70EF854
Copy CRC C70EF854
Accurately ripped (confidence 6) [30E50145] (AR v2)
Copy OK
Track 5
Filename D:\05 - Sunset in Blue.wav
Peak level 71.1 %
Extraction speed 1.5 X
Track quality 100.0 %
Test CRC C7A1579E
Copy CRC C7A1579E
Accurately ripped (confidence 6) [83B9328A] (AR v2)
Copy OK
Track 6
Filename D:\06 - Kippy.wav
Peak level 72.8 %
Extraction speed 1.5 X
Track quality 99.9 %
Test CRC 3BB29581
Copy CRC 3BB29581
Accurately ripped (confidence 6) [1C69B9E1] (AR v2)
Copy OK
Track 7
Filename D:\07 - Jabulani - Easter Joy.wav
Peak level 87.5 %
Extraction speed 1.5 X
Track quality 100.0 %
Test CRC 6A0594B8
Copy CRC 6A0594B8
Accurately ripped (confidence 6) [A2E3AB7B] (AR v2)
Copy OK
Track 8
Filename D:\08 - Tintiyana.wav
Peak level 84.8 %
Extraction speed 1.8 X
Track quality 100.0 %
Test CRC 977BD9CA
Copy CRC 977BD9CA
Accurately ripped (confidence 6) [C8A0CF40] (AR v2)
Copy OK
All tracks accurately ripped
No errors occurred
End of status report
---- CUETools DB Plugin V2.1.3
[CTDB TOCID: SgmTAVLMKWNZuu5dg_.5TLZa4ww-] found, Submit result: SgmTAVLMKWNZuu5dg_.5TLZa4ww- has been confirmed
[9f1a03b1] (2/2) Accurately ripped
==== Log checksum 0D0E7B461A33971B64A1D3E8A48D028041C5B7D1F7E1B6E74D5BD92CF781DBD8 ====
 
Содержание индексной карты (.CUE)
REM GENRE Jazz
REM DATE 1969
REM DISCID 66090D08
REM COMMENT "ExactAudioCopy v1.0b3"
CATALOG 4988005236654
PERFORMER "Dollar Brand"
TITLE "African Piano"
FILE "01 - Bra Joe from Kilimanjaro.wav" WAVE
TRACK 01 AUDIO
TITLE "Bra Joe from Kilimanjaro"
PERFORMER "Dollar Brand"
INDEX 01 00:00:00
FILE "02 - Selby That the Eternal Spirit Is the Only Reality.wav" WAVE
TRACK 02 AUDIO
TITLE "Selby That the Eternal Spirit Is the Only Reality"
PERFORMER "Dollar Brand"
INDEX 01 00:00:00
FILE "03 - The Moon.wav" WAVE
TRACK 03 AUDIO
TITLE "The Moon"
PERFORMER "Dollar Brand"
INDEX 01 00:00:00
FILE "04 - Xaba.wav" WAVE
TRACK 04 AUDIO
TITLE "Xaba"
PERFORMER "Dollar Brand"
INDEX 01 00:00:00
FILE "05 - Sunset in Blue.wav" WAVE
TRACK 05 AUDIO
TITLE "Sunset in Blue"
PERFORMER "Dollar Brand"
INDEX 01 00:00:00
FILE "06 - Kippy.wav" WAVE
TRACK 06 AUDIO
TITLE "Kippy"
PERFORMER "Dollar Brand"
INDEX 01 00:00:00
FILE "07 - Jabulani (Easter Joy).wav" WAVE
TRACK 07 AUDIO
TITLE "Jabulani (Easter Joy)"
PERFORMER "Dollar Brand"
INDEX 01 00:00:00
FILE "08 - Tintiyana.wav" WAVE
TRACK 08 AUDIO
TITLE "Tintiyana"
PERFORMER "Dollar Brand"
INDEX 01 00:00:00
 
Отчет CUETools
[CUETools log; Date: 23.03.2014 13:33:53; Version: 2.1.4]
[CTDB TOCID: SgmTAVLMKWNZuu5dg_.5TLZa4ww-] found.
Track | CTDB Status
1 | (3/3) Accurately ripped
2 | (3/3) Accurately ripped
3 | (3/3) Accurately ripped
4 | (3/3) Accurately ripped
5 | (3/3) Accurately ripped
6 | (3/3) Accurately ripped
7 | (3/3) Accurately ripped
8 | (3/3) Accurately ripped
[AccurateRip ID: 000db399-0056ad8f-66090d08] found.
Track [ CRC | V2 ] Status
01 [e7059949|a3b802fb] (02+06/12) Accurately ripped
02 [ed851781|e579623c] (02+06/12) Accurately ripped
03 [caaa462f|b136d809] (02+06/12) Accurately ripped
04 [24b199cf|30e50145] (02+06/12) Accurately ripped
05 [bdcb042c|83b9328a] (02+06/12) Accurately ripped
06 [e1429e30|1c69b9e1] (02+06/12) Accurately ripped
07 [fe89f048|a2e3ab7b] (02+06/12) Accurately ripped
08 [4d4e972e|c8a0cf40] (02+06/12) Accurately ripped
Offsetted by -290:
01 [7e7916b9] (02/12) Accurately ripped
02 [ade4c127] (02/12) Accurately ripped
03 [f9e3575a] (02/12) Accurately ripped
04 [305e4917] (02/12) Accurately ripped
05 [6c0a4930] (02/12) Accurately ripped
06 [cc631d20] (02/12) Accurately ripped
07 [70be8a4a] (02/12) Accurately ripped
08 [bf364027] (02/12) Accurately ripped
Offsetted by 227:
01 [99a20a16] (00/12) No match (V2 was not tested)
02 [dabbf20e] (00/12) No match (V2 was not tested)
03 [b5cc0e4d] (00/12) No match (V2 was not tested)
04 [5ffa9ac8] (00/12) No match (V2 was not tested)
05 [e5fb3d2c] (00/12) No match (V2 was not tested)
06 [473328f7] (00/12) No match (V2 was not tested)
07 [69d108c5] (00/12) No match (V2 was not tested)
08 [bdfa73cb] (00/12) No match (V2 was not tested)
Track Peak [ CRC32 ] [W/O NULL] [ LOG ]
-- 87,5 [EC4E92B3] [10279EA9]
01 80,2 [E3D6C82D] [4842C350] CRC32
02 66,8 [3687D507] [B289D5B9] CRC32
03 78,2 [A9DEDADE] [9B81D908] CRC32
04 57,9 [C70EF854] [490CD500] CRC32
05 71,1 [C7A1579E] [230DE9AB] CRC32
06 72,8 [3BB29581] [F20AE16C] CRC32
07 87,5 [6A0594B8] [6B1D4919] CRC32
08 84,8 [977BD9CA] [B4C0F094] CRC32
 
Review by Scott Yanow
Pianist Abdullah Ibrahim was still known as "Dollar Brand" when he recorded this solo piano set for ECM; it has been reissued on CD under his original name. The continuous live performance (which is under 39 minutes) explores eight of Ibrahim's originals...Ibrahim was still in the process of finding his own sound at the time, although his improvisations (which use repetition and vamps effectively) have their interesting moments. Still, Ibrahim's later work is more significant.
14:54
638
Нет комментариев. Ваш будет первым!