Поиск

(Jazz-Funk, Afrobeat) [CD] Jungle by Night - Hidden - 2012, FLAC (tracks+.cue), lossless

(Jazz-Funk, Afrobeat) [CD] Jungle by Night - Hidden - 2012, FLAC (tracks+.cue), lossless
Треклист:
Jungle by Night - Hidden
Жанр: Jazz-Funk, Afrobeat
Носитель: CD
Страна-производитель диска (релиза): Нидерланды
Год издания: 2012
Издатель (лейбл): Kindred Spirits
Номер по каталогу: KS 037 CD
Аудиокодек: FLAC (*.flac)
Тип рипа: tracks+.cue
Битрейт аудио: lossless
Продолжительность: 54:20
Источник (релизер): ternognico (what)
Наличие сканов в содержимом раздачи: да
Треклист:
01. Rangda (3:16)
02. Cyclin' (4:30)
03. Togetherness (4:53)
04. Dawn (6:21)
05. 2 Days Before 2012 (4:53)
06. Gallowstreet 34 (3:24)
07. Nightfight (0:59)
08. Ethiopino (3:28)
09. The Past Is History (5:25)
10. Marsvin (5:26)
11. Ghettos of the Mind (4:44)
12. Bokoor (7:01)
 
Лог создания рипа
X Lossless Decoder version 20131102 (145.0)
XLD extraction logfile from 2014-05-06 17:24:50 +0200
Jungle By Night / Hidden
Used drive : OPTIARC DVD RW AD-5680H (revision 3AHB)
Media type : Pressed CD
Ripper mode : XLD Secure Ripper
Disable audio cache : OK for the drive with a cache less than 1375KiB
Make use of C2 pointers : NO
Read offset correction : 48
Max retry count : 20
Gap status : Analyzed, Appended (except HTOA)
TOC of the extracted CD
Track | Start | Length | Start sector | End sector
---------------------------------------------------------
1 | 00:00:00 | 03:16:06 | 0 | 14705
2 | 03:16:06 | 04:29:50 | 14706 | 34930
3 | 07:45:56 | 04:52:53 | 34931 | 56883
4 | 12:38:34 | 06:21:35 | 56884 | 85493
5 | 18:59:69 | 04:52:65 | 85494 | 107458
6 | 23:52:59 | 03:24:23 | 107459 | 122781
7 | 27:17:07 | 00:58:48 | 122782 | 127179
8 | 28:15:55 | 03:28:33 | 127180 | 142812
9 | 31:44:13 | 05:25:07 | 142813 | 167194
10 | 37:09:20 | 05:26:37 | 167195 | 191681
11 | 42:35:57 | 04:43:60 | 191682 | 212966
12 | 47:19:42 | 07:00:64 | 212967 | 244530
AccurateRip Summary (DiscID: 00170510-00d751b4-a90cbc0c)
Track 01 : OK (v2, confidence 6/6)
Track 02 : OK (v2, confidence 6/6)
Track 03 : OK (v2, confidence 6/6)
Track 04 : OK (v2, confidence 6/6)
Track 05 : OK (v2, confidence 6/6)
Track 06 : OK (v2, confidence 6/6)
Track 07 : OK (v2, confidence 6/6)
Track 08 : OK (v2, confidence 6/6)
Track 09 : OK (v2, confidence 6/6)
Track 10 : OK (v2, confidence 6/6)
Track 11 : OK (v2, confidence 6/6)
Track 12 : OK (v2, confidence 6/6)
->All tracks accurately ripped.
All Tracks
Album gain : -5.90 dB
Peak : 0.998505
Statistics
Read error : 0
Jitter error (maybe fixed) : 0
Retry sector count : 0
Damaged sector count : 0
Track 01
Filename : /Volumes/FirewireHitachi/XLD-Output/Jungle By Night - Hidden (2012) [FLAC]/01 Rangda.flac
/Volumes/FirewireHitachi/XLD-Output/Jungle By Night - Hidden (2012) [MP3 320]/01 Rangda.mp3
/Volumes/FirewireHitachi/XLD-Output/Jungle By Night - Hidden (2012) [MP3 V0]/01 Rangda.mp3
/Volumes/FirewireHitachi/XLD-Output/Jungle By Night - Hidden (2012) [MP3 V2]/01 Rangda.mp3
Pre-gap length : 00:02:00
Track gain : -6.26 dB
Peak : 0.969452
CRC32 hash (test run) : 1A8F1BB9
CRC32 hash : 1A8F1BB9
CRC32 hash (skip zero) : 1548F02A
AccurateRip v1 signature : 291EAA3A
AccurateRip v2 signature : D341B3EF
->Accurately ripped (v2, confidence 6/6)
Statistics
Read error : 0
Jitter error (maybe fixed) : 0
Retry sector count : 0
Damaged sector count : 0
Track 02
Filename : /Volumes/FirewireHitachi/XLD-Output/Jungle By Night - Hidden (2012) [FLAC]/02 Cyclin'.flac
/Volumes/FirewireHitachi/XLD-Output/Jungle By Night - Hidden (2012) [MP3 320]/02 Cyclin'.mp3
/Volumes/FirewireHitachi/XLD-Output/Jungle By Night - Hidden (2012) [MP3 V0]/02 Cyclin'.mp3
/Volumes/FirewireHitachi/XLD-Output/Jungle By Night - Hidden (2012) [MP3 V2]/02 Cyclin'.mp3
Track gain : -6.16 dB
Peak : 0.992706
CRC32 hash (test run) : 23B7E0A4
CRC32 hash : 23B7E0A4
CRC32 hash (skip zero) : B1559FD6
AccurateRip v1 signature : E47BFD44
AccurateRip v2 signature : BD4EBD79
->Accurately ripped (v2, confidence 6/6)
Statistics
Read error : 0
Jitter error (maybe fixed) : 0
Retry sector count : 0
Damaged sector count : 0
Track 03
Filename : /Volumes/FirewireHitachi/XLD-Output/Jungle By Night - Hidden (2012) [FLAC]/03 Togetherness.flac
/Volumes/FirewireHitachi/XLD-Output/Jungle By Night - Hidden (2012) [MP3 320]/03 Togetherness.mp3
/Volumes/FirewireHitachi/XLD-Output/Jungle By Night - Hidden (2012) [MP3 V0]/03 Togetherness.mp3
/Volumes/FirewireHitachi/XLD-Output/Jungle By Night - Hidden (2012) [MP3 V2]/03 Togetherness.mp3
Track gain : -5.79 dB
Peak : 0.979919
CRC32 hash (test run) : BE18B2B1
CRC32 hash : BE18B2B1
CRC32 hash (skip zero) : 8224321E
AccurateRip v1 signature : 86F6FD8B
AccurateRip v2 signature : 8A7BAB74
->Accurately ripped (v2, confidence 6/6)
Statistics
Read error : 0
Jitter error (maybe fixed) : 0
Retry sector count : 0
Damaged sector count : 0
Track 04
Filename : /Volumes/FirewireHitachi/XLD-Output/Jungle By Night - Hidden (2012) [FLAC]/04 Dawn.flac
/Volumes/FirewireHitachi/XLD-Output/Jungle By Night - Hidden (2012) [MP3 320]/04 Dawn.mp3
/Volumes/FirewireHitachi/XLD-Output/Jungle By Night - Hidden (2012) [MP3 V0]/04 Dawn.mp3
/Volumes/FirewireHitachi/XLD-Output/Jungle By Night - Hidden (2012) [MP3 V2]/04 Dawn.mp3
Track gain : -5.61 dB
Peak : 0.972412
CRC32 hash (test run) : 26BEF429
CRC32 hash : 26BEF429
CRC32 hash (skip zero) : F0EFF635
AccurateRip v1 signature : FF6EA579
AccurateRip v2 signature : A21E10E4
->Accurately ripped (v2, confidence 6/6)
Statistics
Read error : 0
Jitter error (maybe fixed) : 0
Retry sector count : 0
Damaged sector count : 0
Track 05
Filename : /Volumes/FirewireHitachi/XLD-Output/Jungle By Night - Hidden (2012) [FLAC]/05 2 Days Before 2012.flac
/Volumes/FirewireHitachi/XLD-Output/Jungle By Night - Hidden (2012) [MP3 320]/05 2 Days Before 2012.mp3
/Volumes/FirewireHitachi/XLD-Output/Jungle By Night - Hidden (2012) [MP3 V0]/05 2 Days Before 2012.mp3
/Volumes/FirewireHitachi/XLD-Output/Jungle By Night - Hidden (2012) [MP3 V2]/05 2 Days Before 2012.mp3
Track gain : -6.62 dB
Peak : 0.929962
CRC32 hash (test run) : AC5DFB70
CRC32 hash : AC5DFB70
CRC32 hash (skip zero) : 41B9D083
AccurateRip v1 signature : 471F7954
AccurateRip v2 signature : F5591B7F
->Accurately ripped (v2, confidence 6/6)
Statistics
Read error : 0
Jitter error (maybe fixed) : 0
Retry sector count : 0
Damaged sector count : 0
Track 06
Filename : /Volumes/FirewireHitachi/XLD-Output/Jungle By Night - Hidden (2012) [FLAC]/06 Gallowstreet 34.flac
/Volumes/FirewireHitachi/XLD-Output/Jungle By Night - Hidden (2012) [MP3 320]/06 Gallowstreet 34.mp3
/Volumes/FirewireHitachi/XLD-Output/Jungle By Night - Hidden (2012) [MP3 V0]/06 Gallowstreet 34.mp3
/Volumes/FirewireHitachi/XLD-Output/Jungle By Night - Hidden (2012) [MP3 V2]/06 Gallowstreet 34.mp3
Track gain : -6.82 dB
Peak : 0.945648
CRC32 hash (test run) : 60CC16AC
CRC32 hash : 60CC16AC
CRC32 hash (skip zero) : 00AD6007
AccurateRip v1 signature : 650BF00A
AccurateRip v2 signature : B651EB2C
->Accurately ripped (v2, confidence 6/6)
Statistics
Read error : 0
Jitter error (maybe fixed) : 0
Retry sector count : 0
Damaged sector count : 0
Track 07
Filename : /Volumes/FirewireHitachi/XLD-Output/Jungle By Night - Hidden (2012) [FLAC]/07 Night Fight.flac
/Volumes/FirewireHitachi/XLD-Output/Jungle By Night - Hidden (2012) [MP3 320]/07 Night Fight.mp3
/Volumes/FirewireHitachi/XLD-Output/Jungle By Night - Hidden (2012) [MP3 V0]/07 Night Fight.mp3
/Volumes/FirewireHitachi/XLD-Output/Jungle By Night - Hidden (2012) [MP3 V2]/07 Night Fight.mp3
Track gain : 8.69 dB
Peak : 0.988525
CRC32 hash (test run) : 1FEBCA4A
CRC32 hash : 1FEBCA4A
CRC32 hash (skip zero) : D52D4CB1
AccurateRip v1 signature : E6860F6B
AccurateRip v2 signature : 88AA62D4
->Accurately ripped (v2, confidence 6/6)
Statistics
Read error : 0
Jitter error (maybe fixed) : 0
Retry sector count : 0
Damaged sector count : 0
Track 08
Filename : /Volumes/FirewireHitachi/XLD-Output/Jungle By Night - Hidden (2012) [FLAC]/08 Ethiopino.flac
/Volumes/FirewireHitachi/XLD-Output/Jungle By Night - Hidden (2012) [MP3 320]/08 Ethiopino.mp3
/Volumes/FirewireHitachi/XLD-Output/Jungle By Night - Hidden (2012) [MP3 V0]/08 Ethiopino.mp3
/Volumes/FirewireHitachi/XLD-Output/Jungle By Night - Hidden (2012) [MP3 V2]/08 Ethiopino.mp3
Track gain : -6.41 dB
Peak : 0.925995
CRC32 hash (test run) : C6ED52BF
CRC32 hash : C6ED52BF
CRC32 hash (skip zero) : DBF2BD64
AccurateRip v1 signature : A71D3A37
AccurateRip v2 signature : D06DE974
->Accurately ripped (v2, confidence 6/6)
Statistics
Read error : 0
Jitter error (maybe fixed) : 0
Retry sector count : 0
Damaged sector count : 0
Track 09
Filename : /Volumes/FirewireHitachi/XLD-Output/Jungle By Night - Hidden (2012) [FLAC]/09 The Past Is History.flac
/Volumes/FirewireHitachi/XLD-Output/Jungle By Night - Hidden (2012) [MP3 320]/09 The Past Is History.mp3
/Volumes/FirewireHitachi/XLD-Output/Jungle By Night - Hidden (2012) [MP3 V0]/09 The Past Is History.mp3
/Volumes/FirewireHitachi/XLD-Output/Jungle By Night - Hidden (2012) [MP3 V2]/09 The Past Is History.mp3
Track gain : -5.97 dB
Peak : 0.988831
CRC32 hash (test run) : D4DBD1A6
CRC32 hash : D4DBD1A6
CRC32 hash (skip zero) : 82DA283D
AccurateRip v1 signature : 8D3B9365
AccurateRip v2 signature : 8AE13485
->Accurately ripped (v2, confidence 6/6)
Statistics
Read error : 0
Jitter error (maybe fixed) : 0
Retry sector count : 0
Damaged sector count : 0
Track 10
Filename : /Volumes/FirewireHitachi/XLD-Output/Jungle By Night - Hidden (2012) [FLAC]/10 Marsvin.flac
/Volumes/FirewireHitachi/XLD-Output/Jungle By Night - Hidden (2012) [MP3 320]/10 Marsvin.mp3
/Volumes/FirewireHitachi/XLD-Output/Jungle By Night - Hidden (2012) [MP3 V0]/10 Marsvin.mp3
/Volumes/FirewireHitachi/XLD-Output/Jungle By Night - Hidden (2012) [MP3 V2]/10 Marsvin.mp3
Track gain : -5.14 dB
Peak : 0.985535
CRC32 hash (test run) : 7B071D84
CRC32 hash : 7B071D84
CRC32 hash (skip zero) : 35D541DC
AccurateRip v1 signature : 1FD633F4
AccurateRip v2 signature : 42FFB87F
->Accurately ripped (v2, confidence 6/6)
Statistics
Read error : 0
Jitter error (maybe fixed) : 0
Retry sector count : 0
Damaged sector count : 0
Track 11
Filename : /Volumes/FirewireHitachi/XLD-Output/Jungle By Night - Hidden (2012) [FLAC]/11 Ghettos Of The Mind.flac
/Volumes/FirewireHitachi/XLD-Output/Jungle By Night - Hidden (2012) [MP3 320]/11 Ghettos Of The Mind.mp3
/Volumes/FirewireHitachi/XLD-Output/Jungle By Night - Hidden (2012) [MP3 V0]/11 Ghettos Of The Mind.mp3
/Volumes/FirewireHitachi/XLD-Output/Jungle By Night - Hidden (2012) [MP3 V2]/11 Ghettos Of The Mind.mp3
Track gain : -4.84 dB
Peak : 0.864410
CRC32 hash (test run) : 1CFDA01F
CRC32 hash : 1CFDA01F
CRC32 hash (skip zero) : CE914FB9
AccurateRip v1 signature : 9624BFFC
AccurateRip v2 signature : F4F0AD55
->Accurately ripped (v2, confidence 6/6)
Statistics
Read error : 0
Jitter error (maybe fixed) : 0
Retry sector count : 0
Damaged sector count : 0
Track 12
Filename : /Volumes/FirewireHitachi/XLD-Output/Jungle By Night - Hidden (2012) [FLAC]/12 Bokoor.flac
/Volumes/FirewireHitachi/XLD-Output/Jungle By Night - Hidden (2012) [MP3 320]/12 Bokoor.mp3
/Volumes/FirewireHitachi/XLD-Output/Jungle By Night - Hidden (2012) [MP3 V0]/12 Bokoor.mp3
/Volumes/FirewireHitachi/XLD-Output/Jungle By Night - Hidden (2012) [MP3 V2]/12 Bokoor.mp3
Track gain : -5.23 dB
Peak : 0.998505
CRC32 hash (test run) : 867BCD56
CRC32 hash : 867BCD56
CRC32 hash (skip zero) : 52B2C421
AccurateRip v1 signature : 2F1E5EDE
AccurateRip v2 signature : E9EEFDB6
->Accurately ripped (v2, confidence 6/6)
Statistics
Read error : 0
Jitter error (maybe fixed) : 0
Retry sector count : 0
Damaged sector count : 0
No errors occurred
End of status report
-----BEGIN XLD SIGNATURE-----
8iInLHlCC0X.1AcmG8ARL9VD.m4uasYP.1_yCoFh8XKfTIm.Pw6RtkkjrExmBW.bz8xeu5.gRq3aqPSH_UOXaEsAGq9LlhKGIhDQOjq
-----END XLD SIGNATURE-----
 
Содержание индексной карты (.CUE)
TITLE "Hidden"
PERFORMER "Jungle by Night"
CATALOG 8717127022335
REM GENRE "Jazz"
REM DATE "2012"
REM DISCID A90CBC0C
REM REPLAYGAIN_ALBUM_GAIN -5.90 dB
REM REPLAYGAIN_ALBUM_PEAK 0.998505
FILE "01 - Rangda.flac" WAVE
TRACK 01 AUDIO
TITLE "Rangda"
ISRC NLM961200005
REM REPLAYGAIN_TRACK_GAIN -6.26 dB
REM REPLAYGAIN_TRACK_PEAK 0.969452
INDEX 01 00:00:00
FILE "02 - Cyclin'.flac" WAVE
TRACK 02 AUDIO
TITLE "Cyclin'"
ISRC NLM961200006
REM REPLAYGAIN_TRACK_GAIN -6.16 dB
REM REPLAYGAIN_TRACK_PEAK 0.992706
INDEX 01 00:00:00
FILE "03 - Togetherness.flac" WAVE
TRACK 03 AUDIO
TITLE "Togetherness"
ISRC NLM961200007
REM REPLAYGAIN_TRACK_GAIN -5.79 dB
REM REPLAYGAIN_TRACK_PEAK 0.979919
INDEX 01 00:00:00
FILE "04 - Dawn.flac" WAVE
TRACK 04 AUDIO
TITLE "Dawn"
ISRC NLM961200008
REM REPLAYGAIN_TRACK_GAIN -5.61 dB
REM REPLAYGAIN_TRACK_PEAK 0.972412
INDEX 01 00:00:00
FILE "05 - 2 Days Before 2012.flac" WAVE
TRACK 05 AUDIO
TITLE "2 Days Before 2012"
ISRC NLM961200009
REM REPLAYGAIN_TRACK_GAIN -6.62 dB
REM REPLAYGAIN_TRACK_PEAK 0.929962
INDEX 01 00:00:00
FILE "06 - Gallowstreet 34.flac" WAVE
TRACK 06 AUDIO
TITLE "Gallowstreet 34"
ISRC NLM961200010
REM REPLAYGAIN_TRACK_GAIN -6.82 dB
REM REPLAYGAIN_TRACK_PEAK 0.945648
INDEX 01 00:00:00
FILE "07 - Nightfight.flac" WAVE
TRACK 07 AUDIO
TITLE "Nightfight"
ISRC NLM961200011
REM REPLAYGAIN_TRACK_GAIN 8.69 dB
REM REPLAYGAIN_TRACK_PEAK 0.988525
INDEX 01 00:00:00
FILE "08 - Ethiopino.flac" WAVE
TRACK 08 AUDIO
TITLE "Ethiopino"
ISRC NLM961200012
REM REPLAYGAIN_TRACK_GAIN -6.41 dB
REM REPLAYGAIN_TRACK_PEAK 0.925995
INDEX 01 00:00:00
FILE "09 - The Past Is History.flac" WAVE
TRACK 09 AUDIO
TITLE "The Past Is History"
ISRC NLM961200013
REM REPLAYGAIN_TRACK_GAIN -5.97 dB
REM REPLAYGAIN_TRACK_PEAK 0.988831
INDEX 01 00:00:00
FILE "10 - Marsvin.flac" WAVE
TRACK 10 AUDIO
TITLE "Marsvin"
ISRC NLM961200014
REM REPLAYGAIN_TRACK_GAIN -5.14 dB
REM REPLAYGAIN_TRACK_PEAK 0.985535
INDEX 01 00:00:00
FILE "11 - Ghettos of the Mind.flac" WAVE
TRACK 11 AUDIO
TITLE "Ghettos of the Mind"
ISRC NLM961200015
REM REPLAYGAIN_TRACK_GAIN -4.84 dB
REM REPLAYGAIN_TRACK_PEAK 0.864410
INDEX 01 00:00:00
FILE "12 - Bokoor.flac" WAVE
TRACK 12 AUDIO
TITLE "Bokoor"
ISRC NLM961200016
REM REPLAYGAIN_TRACK_GAIN -5.23 dB
REM REPLAYGAIN_TRACK_PEAK 0.998505
INDEX 01 00:00:00
 
Отчет CUETools
[CUETools log; Date: 24.05.2016 20:32:46; Version: 2.1.5]
[CTDB TOCID: eRv8vGCoXaAQN8cdwEYWhyGiPwU-] found.
Track | CTDB Status
1 | (10/10) Accurately ripped
2 | (10/10) Accurately ripped
3 | (10/10) Accurately ripped
4 | (10/10) Accurately ripped
5 | (10/10) Accurately ripped
6 | (10/10) Accurately ripped
7 | (10/10) Accurately ripped
8 | (10/10) Accurately ripped
9 | (10/10) Accurately ripped
10 | (10/10) Accurately ripped
11 | (10/10) Accurately ripped
12 | (10/10) Accurately ripped
[AccurateRip ID: 00170510-00d751b4-a90cbc0c] found.
Track [ CRC | V2 ] Status
01 [291eaa3a|d341b3ef] (0+8/8) Accurately ripped
02 [e47bfd44|bd4ebd79] (0+8/8) Accurately ripped
03 [86f6fd8b|8a7bab74] (0+8/8) Accurately ripped
04 [ff6ea579|a21e10e4] (0+8/8) Accurately ripped
05 [471f7954|f5591b7f] (0+8/8) Accurately ripped
06 [650bf00a|b651eb2c] (0+8/8) Accurately ripped
07 [e6860f6b|88aa62d4] (0+8/8) Accurately ripped
08 [a71d3a37|d06de974] (0+8/8) Accurately ripped
09 [8d3b9365|8ae13485] (0+8/8) Accurately ripped
10 [1fd633f4|42ffb87f] (0+8/8) Accurately ripped
11 [9624bffc|f4f0ad55] (0+8/8) Accurately ripped
12 [2f1e5ede|e9eefdb6] (0+8/8) Accurately ripped
Track Peak [ CRC32 ] [W/O NULL]
-- 99,8 [B1A5DC1F] [CCCC7A47]
01 96,9 [1A8F1BB9] [1548F02A]
02 99,2 [23B7E0A4] [B1559FD6]
03 97,9 [BE18B2B1] [8224321E]
04 97,2 [26BEF429] [F0EFF635]
05 92,9 [AC5DFB70] [41B9D083]
06 94,5 [60CC16AC] [00AD6007]
07 98,8 [1FEBCA4A] [D52D4CB1]
08 92,6 [C6ED52BF] [DBF2BD64]
09 98,8 [D4DBD1A6] [82DA283D]
10 98,5 [7B071D84] [35D541DC]
11 86,4 [1CFDA01F] [CE914FB9]
12 99,8 [867BCD56] [52B2C421]
 
Об альбоме (сборнике)
“the evolution of afrobeat” - TONY ALLEN Jungle By Night drops their first full studio album on Kindred Spirits.
‘Hidden’ is the first full studio album from this group of dutch lads, who retain their youthful exuberance and innocent energy, and delve deeper into their own sound. Moving slightly away from the afro-beat blueprint that characterized last year’s self-titled debut LP, the nine-piece have added Gamelan tones and studio effects to their afro-funk template, as well as exploring other parts of Africa like Mali’s desert soul and djembe rhythms from Senegal. After two years of playing, and having performed over 80 gigs last year, the group have settled in their own rhythm, and ‘Hidden’ sees them trying out new ideas and forms.
Still keeping the unit strictly instrumental, one strength of Jungle By Night is their innate sense of democracy - the quality control of the hive mind. Tracks are jammed out and developed from the rehearsal room to the stage, keeping the audience in mind all the time. ‘Hidden’ feels very much like a live record, in the vein of classic jazz albums for example, while at the same time utilizing all the digital options that todays recording techniques have to offer.
The album opener ‘Rangda’ marks this new improved version of the band, using selected pieces of Gamelan. “Two of our band members, their families are from Indonesia, and their houses are loaded with gamelan instruments. But the Gamelan tunings have little to do with western tunings. It just sounds eerie, hypnotic and mysterious,” said the band. ‘Rangda’ nods to the spirit of early Tortoise and mid-90’s MoWax, and while Jungle By Night know how to stick to what they do best, they’re partial to the odd experimental excursion too.
The album is laid out by a group who clearly understand live dynamics, building the tension of the first half of the LP with the tight riffs of ‘Togetherness’, the mix of west-coast organ and plaintive horns of ‘2 Days Before 2012’ and ‘Gallowstreet 34’, which could easily soundtrack the 70’s edition of GTA Addis Ababa. Mid-way through the album also points to an interesting path, the drum-less ambience of ‘Night Fight’, a duel of thumb pianos and slide guitar, awash with delays and reverbs, evoking fireflies and glow worms amid the nocturnal jungle creatures.
In the second half, tracks like ‘Ethiopino’, ‘The Past Is History’ and ‘Marsvin’ represent what Jungle By Night do best - taut, multi-layered grooves that are perfect for dancing to, or any other nocturnal activity you like to indulge in. One thing the boys know how to do is find the pocket and lock it, playing around with time signatures while keeping it dynamic. Perhaps the album’s surprise gem is ‘Ghettos Of The Mind’, a languid, Tuareg-inspired roller where you can almost hear the wind whistling across the desert in the background. Producer Wiboud Burkens (Leon Ware, Michael Franti, Carleen Anderson, N’Dambi) has certainly helped craft the complex JBN dynamics into a coherent shape, which has allowed the band to play and experiment without having to worry about the final sound.
‘Hidden’ demonstrates natural talent and sensibility, but there’s something more at work. While those outside the bubble will try to pinpoint or uncover the band’s appeal and what makes them tick, somewhere between the many layers of sounds and rhythm, between the audience and the players, lies a connection that can’t really be explained. Jungle By Night know better than to shine too bright a light on it.
Приватный:
Нет (DHT включён)
Размер:
321.93 Мб (337,571,116 байт) » файлов: 23
Участники:
0 раздают, 0 качают (0 участников всего)
Внешние участники:
5 раздают, 2 качают (7 участников всего) [ Обновить ]
Есть вопросы - пишите личное сообщение пользователю M0p94ok.
10:45
125
Нет комментариев. Ваш будет первым!