Поиск

(Soul Jazz, Jazz-Funk, World Fusion) [CD] Derf Reklaw - From the Nile - 1998, FLAC (tracks+.cue), lossless

(Soul Jazz, Jazz-Funk, World Fusion) [CD] Derf Reklaw - From the Nile - 1998, FLAC (tracks+.cue), lossless
Треклист:
Derf Reklaw - From the Nile
Жанр: Soul Jazz, Jazz-Funk, World Fusion
Носитель: CD
Страна-производитель диска (релиза): США
Год издания: 1998
Издатель (лейбл): Ubiquity
Номер по каталогу: URCD 036
Аудиокодек: FLAC (*.flac)
Тип рипа: tracks+.cue
Битрейт аудио: lossless
Продолжительность: 70:04
Источник (релизер): allblues (what)
Наличие сканов в содержимом раздачи: да
Треклист:
01. Sunrise on the Nile (Handy) - 9:21
02. It's Hot as Haiti (Reklaw) - 6:18
03. Awakening into Awareness (Raheem) - 7:21
04. Tresguanco (For Iris Pell) (Reklaw) - 3:49
05. Hannibal (Handy) - 9:21
06. Jugs, Da Position (Reklaw) - 3:25
07. We See (Reklaw) - 5:17
08. Watusi Wu/Break of the Century (Reklaw) - 6:03
09. Ole (Coltrane) - 11:36
10. Carnival (Harris) - 7:33
 
Лог создания рипа
EAC extraction logfile from 6. May 2006, 16:59 for CD
Derf Reklaw / From The Nile
Used drive : LITE-ON DVDRW SOHW-1633S Adapter: 0 ID: 0
Read mode : Secure with NO C2, accurate stream, disable cache
Read offset correction : 12
Overread into Lead-In and Lead-Out : No
Used output format : Internal WAV Routines
44.100 Hz; 16 Bit; Stereo
Other options :
Fill up missing offset samples with silence : Yes
Delete leading and trailing silent blocks : No
Installed external ASPI interface
Track 1
Filename D:\FLAC\Derf Reklaw - From The Nile (1998) [FLAC]\01 - Sunrise On The Nile.wav
Pre-gap length 0:00:02.00
Peak level 93.6 %
Track quality 100.0 %
Test CRC F1275BA2
Copy CRC F1275BA2
Copy OK
Track 2
Filename D:\FLAC\Derf Reklaw - From The Nile (1998) [FLAC]\02 - It's Hot As Haiti.wav
Pre-gap length 0:00:01.60
Peak level 93.4 %
Track quality 100.0 %
Test CRC 54F809E0
Copy CRC 54F809E0
Copy OK
Track 3
Filename D:\FLAC\Derf Reklaw - From The Nile (1998) [FLAC]\03 - Awakening Into Awareness.wav
Pre-gap length 0:00:01.60
Peak level 93.4 %
Track quality 100.0 %
Test CRC D13D26F8
Copy CRC D13D26F8
Copy OK
Track 4
Filename D:\FLAC\Derf Reklaw - From The Nile (1998) [FLAC]\04 - Tresguanco (For Iris Pell).wav
Pre-gap length 0:00:01.60
Peak level 83.2 %
Track quality 100.0 %
Test CRC 124DF520
Copy CRC 124DF520
Copy OK
Track 5
Filename D:\FLAC\Derf Reklaw - From The Nile (1998) [FLAC]\05 - Hannibal.wav
Pre-gap length 0:00:01.60
Peak level 93.5 %
Track quality 100.0 %
Test CRC 72342666
Copy CRC 72342666
Copy OK
Track 6
Filename D:\FLAC\Derf Reklaw - From The Nile (1998) [FLAC]\06 - Jugs, Da Position.wav
Pre-gap length 0:00:01.60
Peak level 74.1 %
Track quality 100.0 %
Test CRC C2A53D50
Copy CRC C2A53D50
Copy OK
Track 7
Filename D:\FLAC\Derf Reklaw - From The Nile (1998) [FLAC]\07 - We See.wav
Pre-gap length 0:00:00.93
Peak level 85.2 %
Track quality 100.0 %
Test CRC 516965ED
Copy CRC 516965ED
Copy OK
Track 8
Filename D:\FLAC\Derf Reklaw - From The Nile (1998) [FLAC]\08 - Watusi Wu, Break Of The Century.wav
Pre-gap length 0:00:00.60
Peak level 69.3 %
Track quality 100.0 %
Test CRC 69CB801F
Copy CRC 69CB801F
Copy OK
Track 9
Filename D:\FLAC\Derf Reklaw - From The Nile (1998) [FLAC]\09 - Ole.wav
Pre-gap length 0:00:01.60
Peak level 83.2 %
Track quality 100.0 %
Test CRC 8F466D9F
Copy CRC 8F466D9F
Copy OK
Track 10
Filename D:\FLAC\Derf Reklaw - From The Nile (1998) [FLAC]\10 - Carnival.wav
Pre-gap length 0:00:01.60
Peak level 93.4 %
Track quality 100.0 %
Test CRC 84F9154A
Copy CRC 84F9154A
Copy OK
No errors occured
End of status report
 
Содержание индексной карты (.CUE)
REM GENRE Jazz
REM DATE 1998
REM DISCID 86106C0A
REM COMMENT "ExactAudioCopy v0.95b4"
PERFORMER "Derf Reklaw"
TITLE "From the Nile"
FILE "01 - Sunrise on the Nile.wav" WAVE
TRACK 01 AUDIO
TITLE "Sunrise on the Nile"
PERFORMER "Derf Reklaw"
INDEX 01 00:00:00
TRACK 02 AUDIO
TITLE "It's Hot as Haiti"
PERFORMER "Derf Reklaw"
INDEX 00 09:19:23
FILE "02 - It's Hot as Haiti.wav" WAVE
INDEX 01 00:00:00
TRACK 03 AUDIO
TITLE "Awakening into Awareness"
PERFORMER "Derf Reklaw"
INDEX 00 06:16:26
FILE "03 - Awakening into Awareness.wav" WAVE
INDEX 01 00:00:00
TRACK 04 AUDIO
TITLE "Tresguanco (For Iris Pell)"
PERFORMER "Derf Reklaw"
INDEX 00 07:19:30
FILE "04 - Tresguanco (For Iris Pell).wav" WAVE
INDEX 01 00:00:00
TRACK 05 AUDIO
TITLE "Hannibal"
PERFORMER "Derf Reklaw"
INDEX 00 03:47:17
FILE "05 - Hannibal.wav" WAVE
INDEX 01 00:00:00
TRACK 06 AUDIO
TITLE "Jugs, Da Position"
PERFORMER "Derf Reklaw"
INDEX 00 09:19:57
FILE "06 - Jugs, Da Position.wav" WAVE
INDEX 01 00:00:00
TRACK 07 AUDIO
TITLE "We See"
PERFORMER "Derf Reklaw"
INDEX 00 03:24:16
FILE "07 - We See.wav" WAVE
INDEX 01 00:00:00
TRACK 08 AUDIO
TITLE "Watusi Wu/Break of the Century"
PERFORMER "Derf Reklaw"
INDEX 00 05:16:51
FILE "08 - Watusi Wu,Break of the Century.wav" WAVE
INDEX 01 00:00:00
TRACK 09 AUDIO
TITLE "Ole"
PERFORMER "Derf Reklaw"
INDEX 00 06:01:18
FILE "09 - Ole.wav" WAVE
INDEX 01 00:00:00
TRACK 10 AUDIO
TITLE "Carnival"
PERFORMER "Derf Reklaw"
INDEX 00 11:34:23
FILE "10 - Carnival.wav" WAVE
INDEX 01 00:00:00
 
Отчет CUETools
[CUETools log; Date: 23.05.2016 23:40:22; Version: 2.1.5]
[CTDB TOCID: YXywTm0XU.GHpvvpADxSEhAPwI0-] disk not present in database.
[AccurateRip ID: 001a0536-00cdee93-86106c0a] found.
Track [ CRC | V2 ] Status
01 [a440f509|854de6a3] (1+0/1) Accurately ripped
02 [fd7b9fef|f9be2925] (1+0/1) Accurately ripped
03 [5dbf15a7|69dc8108] (1+0/1) Accurately ripped
04 [8927c07a|78f85180] (1+0/1) Accurately ripped
05 [54da5486|377057d0] (1+0/1) Accurately ripped
06 [f20e7611|d600ffb0] (1+0/1) Accurately ripped
07 [0b44200e|1224a8cf] (1+0/1) Accurately ripped
08 [1123b6ab|14aae013] (1+0/1) Accurately ripped
09 [93f845c5|ea028f92] (1+0/1) Accurately ripped
10 [6c533e33|f859e940] (1+0/1) Accurately ripped
Track Peak [ CRC32 ] [W/O NULL] [ LOG ]
-- 93,6 [6B2564E7] [7182D4B8]
01 93,6 [F1275BA2] [B0EB2E98] CRC32
02 93,4 [54F809E0] [A698AF9B] CRC32
03 93,4 [D13D26F8] [8A6ACECA] CRC32
04 83,2 [124DF520] [97C2CC1D] CRC32
05 93,5 [72342666] [D5996CA4] CRC32
06 74,1 [C2A53D50] [1C5A64C5] CRC32
07 85,2 [516965ED] [90604BD7] CRC32
08 69,3 [69CB801F] [4901805B] CRC32
09 83,2 [8F466D9F] [56502456] CRC32
10 93,4 [84F9154A] [E3BCBA05] CRC32
 
AllMusic Review by Stewart Mason
Derf Reklaw (hmm, wonder what his birth name could possibly be?) is a percussionist who straddles hard bop, free jazz, and world music, all three genres heavily influencing 1998's masterful From the Nile. More than just another African-influenced light jazz record to play in the background of funky but chic boutiques, these ten lengthy songs are challenging, forceful music that use their Brazilian, Haitian, and African elements not as color, but as the building blocks of the songs themselves. The songs are built on tricky polyrhythms (from Reklaw and up to four other drummers) with only the most minimal of melodic accompaniment -- a little trumpet, some guitar (most of it in the heavily rhythmic Nigerian style), and a touch of piano are the only thing keeping this from being all drums, all the time. Reklaw and the other vocalists declaim and chant the lyrics in a variety of languages over the rhythms, giving the whole album a sort of incantatory, almost religious feel that's quite impressive. From the Nile is strictly for world music fans, but it's much better than a lot of the watered-down polyglot pop that passes for world music.
 
Состав
Derf Reklaw - vocals, alto saxophone, flute, trumpet, djembe, musa drum, cowbell, congas, tumba, whisums, quinto
Zuri, Dwight Trible, Tamaron Gennae, Mag, Da Pie 3.14, Kang The Guru - vocals
Kamau Daaood - spoken vocals
Michael Harris, Rahmlee Michael Davis - trumpet
John Rangel - piano, marimba
Nick Smith - piano
Trevor Ware - acoustic bass, claves
Lui Lui Satterfield - bass, drums
Munyungo Jackson - drums, congas, shakers, tumba, rattles, sordo, shekere, bata
Don Littleton - drums, tumba, plow sweep, cascara
Billy Higgins - drums
Leon Mobley - conga, djembe
Pondaza Santiel - conga, tumba
Mimi Archie - sound effects
Recorded at Private Island Trax in Hollywood, CA.
Приватный:
Нет (DHT включён)
Размер:
471.97 Мб (494,901,168 байт) » файлов: 24
Участники:
0 раздают, 0 качают (0 участников всего)
Внешние участники:
1 раздают, 0 качают (1 участников всего) [ Обновить ]
No seeders - write a personal message to user M0p94ok. Нет сидеров - пишите личное сообщение пользователю M0p94ok.
10:44
71
Нет комментариев. Ваш будет первым!