Поиск

(Funk, Soul-Jazz) [CD] Charles Kynard - Your Mama Don't Dance - 1973 (2007 Japan Edition), FLAC (tracks+.cue), lossless

(Funk, Soul-Jazz) [CD] Charles Kynard - Your Mama Don't Dance - 1973 (2007 Japan Edition), FLAC (tracks+.cue), lossless
Треклист:
Charles Kynard - Your Mama Don't Dance
Жанр: Funk, Soul-Jazz
Носитель: CD
Страна-производитель диска (релиза): Япония
Год издания: 2007
Издатель (лейбл): P-Vine Records
Номер по каталогу: PCD-23933
Страна исполнителя (группы): США
Аудиокодек: FLAC (*.flac)
Тип рипа: tracks+.cue
Битрейт аудио: lossless
Продолжительность: 32:15
Источник (релизер): KidCanary (what)
Наличие сканов в содержимом раздачи: нет
Треклист:
01. Superstition (Wonder) - 4:47
02. The World Is a Ghetto (War) - 3:12
03. Momma Jive (Fritz) - 3:30
04. I Got So Much Trouble (Quarterman) - 5:10
05. Your Mama Don't Dance (Loggins-Messina) - 2:41
06. Zambezi (Fritz) - 5:35
07. Summer Breeze (Seals-Crofts) - 3:30
08. You've Got It Bad Girl (Wonder-Wright) - 3:50
Состав:
Charles Kynard - organ
James Kartchner, Jerry Rusch - trumpet
George Bohanon, David Roberts - trombone
Arthur Adams - guitar
Chuck Rainey - electric bass
Paul Humphrey, Raymond Pounds - drums
Richard Fritz - arranger, conductor
Recorded in Los Angeles, CA in 1973.
 
Лог создания рипа
Exact Audio Copy V1.1 from 23. June 2015
EAC extraction logfile from 26. May 2016, 20:30
Charles Kynard / Your Mama Don't Dance
Used drive : ASUS DRW-24B1ST Adapter: 1 ID: 0
Read mode : Secure
Utilize accurate stream : Yes
Defeat audio cache : Yes
Make use of C2 pointers : No
Read offset correction : 6
Overread into Lead-In and Lead-Out : No
Fill up missing offset samples with silence : Yes
Delete leading and trailing silent blocks : No
Null samples used in CRC calculations : Yes
Used interface : Native Win32 interface for Win NT & 2000
Gap handling : Appended to previous track
Used output format : User Defined Encoder
Selected bitrate : 1024 kBit/s
Quality : High
Add ID3 tag : No
Command line compressor : C:\Program Files\FLAC 1.3.1\win64\flac.exe
Additional command line options : -8 -V -T "ARTIST=%artist%" -T "TITLE=%title%" -T "ALBUM=%albumtitle%" -T "DATE=%year%" -T "TRACKNUMBER=%tracknr%" -T "GENRE=%genre%" -T "PERFORMER=%albuminterpret%" -T "COMPOSER=%composer%" %haslyrics%--tag-from-file=LYRICS="%lyricsfile%"%haslyrics% -T "ALBUMARTIST=%albumartist%" -T "DISCNUMBER=%cdnumber%" -T "TOTALDISCS=%totalcds%" -T "TOTALTRACKS=%numtracks%" -T "COMMENT=%comment%" %source% -o %dest%
TOC of the extracted CD
Track | Start | Length | Start sector | End sector
---------------------------------------------------------
1 | 0:00.00 | 4:47.27 | 0 | 21551
2 | 4:47.27 | 3:12.10 | 21552 | 35961
3 | 7:59.37 | 3:29.43 | 35962 | 51679
4 | 11:29.05 | 5:10.01 | 51680 | 74930
5 | 16:39.06 | 2:40.71 | 74931 | 87001
6 | 19:20.02 | 5:35.35 | 87002 | 112161
7 | 24:55.37 | 3:29.48 | 112162 | 127884
8 | 28:25.10 | 3:50.24 | 127885 | 145158
Track 1
Filename C:\EAC Rips\01 - Superstition.wav
Pre-gap length 0:00:02.00
Peak level 96.6 %
Extraction speed 3.5 X
Track quality 100.0 %
Test CRC 609620D3
Copy CRC 609620D3
Accurately ripped (confidence 1) [60208D4B] (AR v2)
Copy OK
Track 2
Filename C:\EAC Rips\02 - The World Is a Ghetto.wav
Pre-gap length 0:00:02.36
Peak level 96.6 %
Extraction speed 3.7 X
Track quality 100.0 %
Test CRC 27B04A94
Copy CRC 27B04A94
Accurately ripped (confidence 1) [47A22DA2] (AR v2)
Copy OK
Track 3
Filename C:\EAC Rips\03 - Momma Jive.wav
Pre-gap length 0:00:02.29
Peak level 96.6 %
Extraction speed 4.0 X
Track quality 100.0 %
Test CRC B7CE2B71
Copy CRC B7CE2B71
Accurately ripped (confidence 1) [2B707233] (AR v2)
Copy OK
Track 4
Filename C:\EAC Rips\04 - I Got So Much Trouble.wav
Pre-gap length 0:00:01.53
Peak level 96.6 %
Extraction speed 4.6 X
Track quality 100.0 %
Test CRC 2093515A
Copy CRC 2093515A
Accurately ripped (confidence 1) [51984719] (AR v2)
Copy OK
Track 5
Filename C:\EAC Rips\05 - Your Mama Don't Dance.wav
Pre-gap length 0:00:03.00
Peak level 96.6 %
Extraction speed 4.4 X
Track quality 100.0 %
Test CRC 8BBE9CF2
Copy CRC 8BBE9CF2
Accurately ripped (confidence 1) [FCED8757] (AR v2)
Copy OK
Track 6
Filename C:\EAC Rips\06 - Zambezi.wav
Pre-gap length 0:00:00.69
Peak level 96.6 %
Extraction speed 5.1 X
Track quality 100.0 %
Test CRC 51B2E60C
Copy CRC 51B2E60C
Accurately ripped (confidence 1) [913CDE91] (AR v2)
Copy OK
Track 7
Filename C:\EAC Rips\07 - Summer Breeze.wav
Pre-gap length 0:00:00.76
Peak level 96.6 %
Extraction speed 5.1 X
Track quality 100.0 %
Test CRC CB9FA10D
Copy CRC CB9FA10D
Accurately ripped (confidence 1) [4D1DD092] (AR v2)
Copy OK
Track 8
Filename C:\EAC Rips\08 - You've Got It Bad Girl.wav
Pre-gap length 0:00:02.40
Peak level 96.6 %
Extraction speed 5.4 X
Track quality 100.0 %
Test CRC 70883D1E
Copy CRC 70883D1E
Accurately ripped (confidence 1) [D33D47CC] (AR v2)
Copy OK
All tracks accurately ripped
No errors occurred
End of status report
---- CUETools DB Plugin V2.1.6
[CTDB TOCID: 7MqXqT2pAI6oCrF3CZEEU5k18rk-] found
Submit result: 7MqXqT2pAI6oCrF3CZEEU5k18rk- has been confirmed
Track | CTDB Status
1 | (1/1) Accurately ripped
2 | (1/1) Accurately ripped
3 | (1/1) Accurately ripped
4 | (1/1) Accurately ripped
5 | (1/1) Accurately ripped
6 | (1/1) Accurately ripped
7 | (1/1) Accurately ripped
8 | (1/1) Accurately ripped
==== Log checksum 524B7F0D1A77C6A10D14BC7FC30DF483D09D383CED839C9F11A6A79FD53B94E9 ====
 
Содержание индексной карты (.CUE)
REM GENRE Funk
REM DATE 1973
REM DISCID 62078F08
REM COMMENT "ExactAudioCopy v1.1"
CATALOG 4995879239339
PERFORMER "Charles Kynard"
TITLE "Your Mama Don't Dance"
FILE "01 - Superstition.wav" WAVE
TRACK 01 AUDIO
TITLE "Superstition"
PERFORMER "Charles Kynard"
INDEX 01 00:00:00
TRACK 02 AUDIO
TITLE "The World Is a Ghetto"
PERFORMER "Charles Kynard"
INDEX 00 04:45:00
FILE "02 - The World Is a Ghetto.wav" WAVE
INDEX 01 00:00:00
TRACK 03 AUDIO
TITLE "Momma Jive"
PERFORMER "Charles Kynard"
INDEX 00 03:09:63
FILE "03 - Momma Jive.wav" WAVE
INDEX 01 00:00:00
TRACK 04 AUDIO
TITLE "I Got So Much Trouble"
PERFORMER "Charles Kynard"
INDEX 00 03:28:03
FILE "04 - I Got So Much Trouble.wav" WAVE
INDEX 01 00:00:00
TRACK 05 AUDIO
TITLE "Your Mama Don't Dance"
PERFORMER "Charles Kynard"
INDEX 00 05:07:01
FILE "05 - Your Mama Don't Dance.wav" WAVE
INDEX 01 00:00:00
TRACK 06 AUDIO
TITLE "Zambezi"
PERFORMER "Charles Kynard"
INDEX 00 02:40:19
FILE "06 - Zambezi.wav" WAVE
INDEX 01 00:00:00
TRACK 07 AUDIO
TITLE "Summer Breeze"
PERFORMER "Charles Kynard"
INDEX 00 05:34:53
FILE "07 - Summer Breeze.wav" WAVE
INDEX 01 00:00:00
TRACK 08 AUDIO
TITLE "You've Got It Bad Girl"
PERFORMER "Charles Kynard"
INDEX 00 03:27:18
FILE "08 - You've Got It Bad Girl.wav" WAVE
INDEX 01 00:00:00
 
Об альбоме (сборнике)
Recorded in 1973 for Bob Shad's Mainstream label, the cast for the album is a dream ticket who's-who of funky cats: as well as Kynard himself, there's bass-meister Chuck Rainey, who I grew to know and love through his work with Steely Dan (check his nifty bass solo here on 'So Much Trouble'), guitarist Arthur Adams (wicked throughout, you gotta love his volume knob-twiddlin' solo on 'Superstition'!), and groove assassins Paul Humphreys and Ray Pounds on kit. Dunno which of the two drummers played on which tunes, but the slinky grooves of 'Mama Jive' and 'Zambezi' are pure rhythmic pleasure, and I love the buzz rolls at the end of 'Summer Breeze'. There's some fulsome horn charts too, courtesy of Richard Fritz, which lean towards soundtrack/big band vibes in places, with unison figures, stabs, punches and the like, kind of karate horns if you will.
-- Seb Palmer
Приватный:
Нет (DHT включён)
Размер:
189.20 Мб (198,386,708 байт) » файлов: 14
Участники:
0 раздают, 0 качают (0 участников всего)
Внешние участники:
3 раздают, 1 качают (4 участников всего) [ Обновить ]
Есть вопросы - пишите личное сообщение пользователю M0p94ok.
10:45
64
Нет комментариев. Ваш будет первым!