Поиск

(Jazz, Free-Jazz, Avant-Garde) Michel Portal - 6 albums - 1971, FLAC (image + .cue), lossless

Треклист:
Michel Portal - 6 albums
Страна: France
Жанр: Jazz, Free-Jazz, Avant-Garde
Формат: FLAC (image + .cue)
Битрейт аудио: lossless
Трэклист:
Michel Portal - Splendid Yzlment
Год выпуска: 1971

01. Splendid Yzlment 07:12
02. Aquellos del otro lado 12:29
03. Kakashoos III 06:19
04. Blindly and Continuously 14:02
 
Отчет ЕАС
Exact Audio Copy V0.99 prebeta 3 from 28. July 2007
Отчёт EAC об извлечении, выполненном 10. января 2008, 21:46
Michel Portal / Splendid Yzlment
Дисковод: PLEXTOR DVDR PX-755A Adapter: 2 ID: 0
Режим чтения : Достоверность
Использование точного потока : Да
Отключение кэша аудио : Да
Использование указателей C2 : Нет
Коррекция смещения при чтении : 30
Способность читать области Lead-in и Lead-out : Нет
Заполнение пропущенных сэмплов тишиной : Да
Удаление блоков с тишиной в начале и конце : Нет
При вычислениях CRC использовались нулевые сэмплы : Нет
Интерфейс : Установленный внешний ASPI-интерфейс
Выходной формат : Внутренние WAV-операции
Формат сэмплов : 44.100 Гц; 16 бит; стерео
TOC извлечённого CD
Трек | Старт | Длительность | Начальный сектор | Конечный сектор
---------------------------------------------------------------------
1 | 0:00.32 | 7:12.25 | 32 | 32456
2 | 7:12.57 | 12:29.68 | 32457 | 88699
3 | 19:42.50 | 6:19.12 | 88700 | 117136
4 | 26:01.62 | 14:02.45 | 117137 | 180331
Характеристики диапазона извлечения и сообщения об ошибках
Выбранный диапазон
Имя файла D:\Мои документы\Моя музыка\Upload\Michel Portal\Michel Portal - Splendid Yzlment\Michel Portal - Splendid Yzlment.wav
Пиковый уровень 97.5 %
Качество диапазона 100.0 %
CRC копии 02B9563D
Копирование... OK
Ошибок не произошло
Конец отчёта
 
TauAnalyzer
Рип с CD-R. Сканов не имею.
Michel Portal - Any Way
Год выпуска: 1993

01. Sons meles 05:11
02. Toccata 09:24
03. Any Way 09:38
04. Octaver 06:25
05. James 06:25
06. Intranquilo 09:39
 
Отчет ЕАС
Exact Audio Copy V0.99 prebeta 3 from 28. July 2007
Отчёт EAC об извлечении, выполненном 10. января 2008, 22:26
Michel Portal / Any Way
Дисковод: PLEXTOR DVDR PX-755A Adapter: 2 ID: 0
Режим чтения : Достоверность
Использование точного потока : Да
Отключение кэша аудио : Да
Использование указателей C2 : Нет
Коррекция смещения при чтении : 30
Способность читать области Lead-in и Lead-out : Нет
Заполнение пропущенных сэмплов тишиной : Да
Удаление блоков с тишиной в начале и конце : Нет
При вычислениях CRC использовались нулевые сэмплы : Нет
Интерфейс : Установленный внешний ASPI-интерфейс
Выходной формат : Внутренние WAV-операции
Формат сэмплов : 44.100 Гц; 16 бит; стерео
TOC извлечённого CD
Трек | Старт | Длительность | Начальный сектор | Конечный сектор
---------------------------------------------------------------------
1 | 0:00.32 | 5:11.73 | 32 | 23429
2 | 5:12.30 | 9:24.32 | 23430 | 65761
3 | 14:36.62 | 9:38.58 | 65762 | 109169
4 | 24:15.45 | 6:25.30 | 109170 | 138074
5 | 30:41.00 | 6:25.72 | 138075 | 167021
6 | 37:06.72 | 9:39.68 | 167022 | 210514
Характеристики диапазона извлечения и сообщения об ошибках
Выбранный диапазон
Имя файла D:\Мои документы\Моя музыка\Upload\Michel Portal\Michel Portal - Any Way\Michel Portal - Any Way.wav
Пиковый уровень 100.0 %
Качество диапазона 100.0 %
CRC копии 5F50C491
Копирование... OK
Ошибок не произошло
Конец отчёта
Рип с фирмЫ. Сканы в комплекте.
Michel Portal - Men's Land
Год выпуска: 1987

01. Ahmad The Terrible 12:47
02. Men's Land 09:06
03. Pastor 08:42
04. Easy Nuff 18:10
 
Отчет ЕАС
Exact Audio Copy V0.99 prebeta 3 from 28. July 2007
Отчёт EAC об извлечении, выполненном 10. января 2008, 21:07
Michel Portal / Men's Land
Дисковод: PLEXTOR DVDR PX-755A Adapter: 2 ID: 0
Режим чтения : Достоверность
Использование точного потока : Да
Отключение кэша аудио : Да
Использование указателей C2 : Нет
Коррекция смещения при чтении : 30
Способность читать области Lead-in и Lead-out : Нет
Заполнение пропущенных сэмплов тишиной : Да
Удаление блоков с тишиной в начале и конце : Нет
При вычислениях CRC использовались нулевые сэмплы : Нет
Интерфейс : Установленный внешний ASPI-интерфейс
Выходной формат : Внутренние WAV-операции
Формат сэмплов : 44.100 Гц; 16 бит; стерео
TOC извлечённого CD
Трек | Старт | Длительность | Начальный сектор | Конечный сектор
---------------------------------------------------------------------
1 | 0:00.00 | 12:47.30 | 0 | 57554
2 | 12:47.30 | 9:06.50 | 57555 | 98554
3 | 21:54.05 | 8:42.20 | 98555 | 137724
4 | 30:36.25 | 18:10.08 | 137725 | 219482
Характеристики диапазона извлечения и сообщения об ошибках
Выбранный диапазон
Имя файла D:\Мои документы\Моя музыка\Upload\Michel Portal\Michel Portal - Men's Land\Michel Portal - Men's Land.wav
Пиковый уровень 100.0 %
Качество диапазона 100.0 %
CRC копии D9BE90DF
Копирование... OK
Ошибок не произошло
Конец отчёта
 
TauAnalyzer
TauAnalyzer тупанул на четвертом треке, поэтому прилагаю частотку и спектр
 
Easy Nuff frequency
 
Easy Nuff spectrum
Рип с CD-R. Сканы в комплекте.
Michel Portal - Musiques de Cinemas

Год выпуска: 1996

01. Histoire de Vent 06:37
02. Max Mon Amour #1 03:37
03. Yeelen 07:10
04. Droit de Reponse 04:56
05. Max Mon Amour #2 06:16
06. Docteur Petiot 04:47
07. Champ d'Honneur 04:12
08. Yan Ivanovitch Kossiakow 02:42
 
Отчет ЕАС
Exact Audio Copy V0.99 prebeta 3 from 28. July 2007
Отчёт EAC об извлечении, выполненном 10. января 2008, 21:14
Michel Portal / Musiques de Cinemas
Дисковод: PLEXTOR DVDR PX-755A Adapter: 2 ID: 0
Режим чтения : Достоверность
Использование точного потока : Да
Отключение кэша аудио : Да
Использование указателей C2 : Нет
Коррекция смещения при чтении : 30
Способность читать области Lead-in и Lead-out : Нет
Заполнение пропущенных сэмплов тишиной : Да
Удаление блоков с тишиной в начале и конце : Нет
При вычислениях CRC использовались нулевые сэмплы : Нет
Интерфейс : Установленный внешний ASPI-интерфейс
Выходной формат : Внутренние WAV-операции
Формат сэмплов : 44.100 Гц; 16 бит; стерео
TOC извлечённого CD
Трек | Старт | Длительность | Начальный сектор | Конечный сектор
---------------------------------------------------------------------
1 | 0:00.33 | 6:37.67 | 33 | 29874
2 | 6:38.25 | 3:37.05 | 29875 | 46154
3 | 10:15.30 | 7:10.43 | 46155 | 78447
4 | 17:25.73 | 4:56.47 | 78448 | 100694
5 | 22:22.45 | 6:16.55 | 100695 | 128949
6 | 28:39.25 | 4:47.45 | 128950 | 150519
7 | 33:26.70 | 4:12.10 | 150520 | 169429
8 | 37:39.05 | 2:42.28 | 169430 | 181607
Характеристики диапазона извлечения и сообщения об ошибках
Выбранный диапазон
Имя файла D:\Мои документы\Моя музыка\Upload\Michel Portal\Michel Portal - Musiques de Cinemas\Michel Portal - Musiques de Cinemas.wav
Пиковый уровень 99.5 %
Качество диапазона 100.0 %
CRC копии C1139EBC
Копирование... OK
Ошибок не произошло
Конец отчёта
 
TauAnalyzer
Рип с CD-R. Сканов не имею.
Michel Portal - Burundi
Год выпуска: 2004

01. Burundi 03:49
02. Impro 04:03
03. Solitude 05:26
04. Pigmee 06:39
05. Djembe 1 00:54
06. Calimba 08:01
07. Didg 3 03:24
08. Mino 2 07:55
09. Canon 06:34
10. Milesruns 14:00
11. Djembe 2 00:37
12. No parking 08:46
13. Didg 2 03:08
 
Отчет ЕАС
Exact Audio Copy V0.99 prebeta 3 from 28. July 2007
Отчёт EAC об извлечении, выполненном 10. января 2008, 21:33
Michel Portal / Burundi
Дисковод: PLEXTOR DVDR PX-755A Adapter: 2 ID: 0
Режим чтения : Достоверность
Использование точного потока : Да
Отключение кэша аудио : Да
Использование указателей C2 : Нет
Коррекция смещения при чтении : 30
Способность читать области Lead-in и Lead-out : Нет
Заполнение пропущенных сэмплов тишиной : Да
Удаление блоков с тишиной в начале и конце : Нет
При вычислениях CRC использовались нулевые сэмплы : Нет
Интерфейс : Установленный внешний ASPI-интерфейс
Выходной формат : Внутренние WAV-операции
Формат сэмплов : 44.100 Гц; 16 бит; стерео
TOC извлечённого CD
Трек | Старт | Длительность | Начальный сектор | Конечный сектор
---------------------------------------------------------------------
1 | 0:00.00 | 3:49.68 | 0 | 17242
2 | 3:49.68 | 4:03.14 | 17243 | 35481
3 | 7:53.07 | 5:26.04 | 35482 | 59935
4 | 13:19.11 | 6:39.64 | 59936 | 89924
5 | 19:59.00 | 0:54.74 | 89925 | 94048
6 | 20:53.74 | 8:01.62 | 94049 | 130185
7 | 28:55.61 | 3:24.04 | 130186 | 145489
8 | 32:19.65 | 7:55.13 | 145490 | 181127
9 | 40:15.03 | 6:34.22 | 181128 | 210699
10 | 46:49.25 | 14:00.09 | 210700 | 273708
11 | 60:49.34 | 0:37.06 | 273709 | 276489
12 | 61:26.40 | 8:46.00 | 276490 | 315939
13 | 70:12.40 | 3:08.06 | 315940 | 330045
Характеристики диапазона извлечения и сообщения об ошибках
Выбранный диапазон
Имя файла D:\Мои документы\Моя музыка\Upload\Michel Portal\Michel Portal - Burundi\Michel Portal - Burundi.wav
Пиковый уровень 100.0 %
Качество диапазона 100.0 %
CRC копии 4E70E7D9
Копирование... OK
Ошибок не произошло
Конец отчёта
 
TauAnalyzer
Рип с CD-R. Сканов не имею.
Michel Portal - Arrivederci le Chouartse
Год выпуска: 1980

01. Arrivederci 32:36
02. Le chouartse I 17:58
03. Le chouartse II 18:40
 
Отчет ЕАС
Exact Audio Copy V0.99 prebeta 3 from 28. July 2007
Отчёт EAC об извлечении, выполненном 10. января 2008, 21:23
Michel Portal / Arrivederci le chouartse
Дисковод: PLEXTOR DVDR PX-755A Adapter: 2 ID: 0
Режим чтения : Достоверность
Использование точного потока : Да
Отключение кэша аудио : Да
Использование указателей C2 : Нет
Коррекция смещения при чтении : 30
Способность читать области Lead-in и Lead-out : Нет
Заполнение пропущенных сэмплов тишиной : Да
Удаление блоков с тишиной в начале и конце : Нет
При вычислениях CRC использовались нулевые сэмплы : Нет
Интерфейс : Установленный внешний ASPI-интерфейс
Выходной формат : Внутренние WAV-операции
Формат сэмплов : 44.100 Гц; 16 бит; стерео
TOC извлечённого CD
Трек | Старт | Длительность | Начальный сектор | Конечный сектор
---------------------------------------------------------------------
1 | 0:00.00 | 32:36.25 | 0 | 146724
2 | 32:36.25 | 17:58.37 | 146725 | 227611
3 | 50:34.62 | 18:40.13 | 227612 | 311624
Характеристики диапазона извлечения и сообщения об ошибках
Выбранный диапазон
Имя файла D:\Мои документы\Моя музыка\Upload\Michel Portal\Michel Portal - Arrivederci le chouartse\Michel Portal - Arrivederci le chouartse.wav
Пиковый уровень 62.0 %
Качество диапазона 100.0 %
CRC копии 4E5E26A2
Копирование... OK
Ошибок не произошло
Конец отчёта
 
TauAnalyzer
Рип с CD-R. Сканов не имею.
Приватный:
Нет (DHT включён)
Размер:
1.75 Гб (1,874,257,049 байт) » файлов: 26
Участники:
0 раздают, 0 качают (0 участников всего)
Внешние участники:
3 раздают, 1 качают (4 участников всего) [ Обновить ]
Есть вопросы - пишите личное сообщение пользователю M0p94ok.
23:12
87
Нет комментариев. Ваш будет первым!