Поиск

(Modern Creative\Jazz) Bobby Previte - Pushing the Envelope - 1987, FLAC (tracks), lossless

(Modern Creative\Jazz) Bobby Previte - Pushing the Envelope - 1987, FLAC (tracks), lossless
Треклист:
BOBBY PREVITE - Pushing the Envelope
Страна: USA
Жанр: Modern Creative\Jazz
Год выпуска: 1987
Формат: FLAC (tracks)
Битрейт аудио: lossless
Продолжительность: 42:35
Трэклист:
1 Open World - Previte 5:38
2 Ballad Noir - Previte 6:09
3 Once - Previte 7:39
4 Mirror Mirror - Previte 3:06
5 102° in the Shade - Previte 8:34
6 Pushing the Envelope - Previte 11:29
Bobby Previte переиграл на обеих побережьях Штатов со всеми музыкантами , отнесёнными AMG к списку Modern Creative.
Мне лично Превит нравится за особовыдающийся композиторский талант. Хотя и по барабанам (особенно любит электронные, но не на этом альбоме), стучит очень недурно.
 
Евгений ДОЛГИХ © 2007 Jazz-Квадрат о Превите
Бобби Превит — исполнитель на ударных, различных клавишных и фортепиано. Нью-йоркский музыкальный андерграунд (John Zorn, Wayne Horvitz, Marty Ehrlich) вроде бы причисляет его к своим, но он успешно сотрудничает и с совершенно другими по духу артистами — композитором Джейн Айрой Блум, режиссером Робертом Олтманом, Московским цирком(!), кукольным театром. Вместе со своими двумя постоянными коллективами он записывает самую разнообразную музыку, от Майлса Дэйвиса до самого “крутого” авангарда, и считается в среде исполнителей ”темной лошадкой”, от которой можно ожидать чего угодно.
Cтивен Кук, с того же AMG, довольно точно охарактеризовал этот альбом: "Для тех кто не знаком с Превитом, этот диск должен быть первым". (перевод адаптированый мой )
Этот довольно редкий альбом вышел на Gramavision в следущем составе:
Marty Ehrlich - Tenor&Alto Sax
Tom Varner - French Horn
Wayne Horvitz - Piano
Dave Hofstra - Bass, Tuba
Bobby Previte - Drums
 
log
Exact Audio Copy V0.99 prebeta 3 from 28. July 2007
EAC extraction logfile from 17. January 2008, 21:27
Bobby Previte / Pushing the Envelope
Used drive : HL-DT-STDVDRAM GSA-4165B Adapter: 1 ID: 0
Read mode : Secure
Utilize accurate stream : Yes
Defeat audio cache : Yes
Make use of C2 pointers : No
Read offset correction : 667
Overread into Lead-In and Lead-Out : No
Fill up missing offset samples with silence : Yes
Delete leading and trailing silent blocks : No
Null samples used in CRC calculations : No
Used interface : Native Win32 interface for Win NT & 2000
Gap handling : Not detected, thus appended to previous track
Used output format : User Defined Encoder
Selected bitrate : 768 kBit/s
Quality : High
Add ID3 tag : No
Command line compressor : C:\Program Files\Exact Audio Copy\FLAC\FLAC.EXE
Additional command line options : -6 -V -T "ARTIST=%a" -T "TITLE=%t" -T "ALBUM=%g" -T "DATE=%y" -T "TRACKNUMBER=%n" -T "GENRE=%m" -T "COMMENT=%e" %s -o %d
TOC of the extracted CD
Track | Start | Length | Start sector | End sector
---------------------------------------------------------
1 | 0:00.00 | 5:42.62 | 0 | 25711
2 | 5:42.62 | 6:15.40 | 25712 | 53876
3 | 11:58.27 | 7:40.43 | 53877 | 88419
4 | 19:38.70 | 3:11.40 | 88420 | 102784
5 | 22:50.35 | 8:36.55 | 102785 | 141539
6 | 31:27.15 | 11:28.05 | 141540 | 193144
Track 1
Filename C:\Family_Folder\Torrent\0_My_Music\Bobby Previte - Pushing the Envelope (1987)\Bobby Previte-01Open World.wav
Peak level 75.9 %
Track quality 100.0 %
Copy CRC 5D7EE13A
Accurately ripped (confidence 1) [5166A31C]
Copy OK
Track 2
Filename C:\Family_Folder\Torrent\0_My_Music\Bobby Previte - Pushing the Envelope (1987)\Bobby Previte-02Ballad Noir.wav
Peak level 72.1 %
Track quality 100.0 %
Copy CRC BDC1DB61
Accurately ripped (confidence 1) [BFE4C9D2]
Copy OK
Track 3
Filename C:\Family_Folder\Torrent\0_My_Music\Bobby Previte - Pushing the Envelope (1987)\Bobby Previte-03Once.wav
Peak level 98.5 %
Track quality 99.9 %
Copy CRC A671F612
Accurately ripped (confidence 1) [63A6E3E9]
Copy OK
Track 4
Filename C:\Family_Folder\Torrent\0_My_Music\Bobby Previte - Pushing the Envelope (1987)\Bobby Previte-04Mirror, Mirror.wav
Peak level 43.5 %
Track quality 100.0 %
Copy CRC C1050447
Accurately ripped (confidence 1) [B1DE7D5F]
Copy OK
Track 5
Filename C:\Family_Folder\Torrent\0_My_Music\Bobby Previte - Pushing the Envelope (1987)\Bobby Previte-05102° in the Shade.wav
Peak level 100.0 %
Track quality 100.0 %
Copy CRC 697E08C9
Accurately ripped (confidence 1) [72B227AC]
Copy OK
Track 6
Filename C:\Family_Folder\Torrent\0_My_Music\Bobby Previte - Pushing the Envelope (1987)\Bobby Previte-06Pushing the Envelope.wav
Peak level 97.6 %
Track quality 99.9 %
Copy CRC 1C0247E3
Cannot be verified as accurate (confidence 1) [51A0D224], AccurateRip returned [F0B3E3DC]
Copy OK
5 track(s) accurately ripped
1 track(s) could not be verified as accurate
Some tracks could not be verified as accurate
No errors occurred
End of status report
С последним треком в логе заминочка вышла (Cannot be verified as accurate ), для интересующихся под спойлером картика с FLACTester'а.
 
FLACTester
Рип с фирмы, как обычно без обложек.
Приватный:
Нет (DHT включён)
Размер:
215.32 Мб (225,783,791 байт) » файлов: 11
Участники:
0 раздают, 0 качают (0 участников всего)
Внешние участники:
3 раздают, 1 качают (4 участников всего) [ Обновить ]
No seeders - write personal message to user M0p94ok. Нет сидеров - пишите личное сообщение пользователю M0p94ok.
23:11
57
Нет комментариев. Ваш будет первым!