Поиск

(Avant-garde) Cecil Taylor - Jazz Advance - 1955, FLAC (tracks), lossless

Треклист:
Cecil Taylor - Jazz Advance
Страна: US
Жанр: Avant-garde
Год выпуска: 1955
Формат: FLAC (tracks)
Битрейт аудио: lossless
Продолжительность: 53:24
Трэклист:
01 - Bemsha Swing (7:27)
02 - Charge 'em Blues (11:06)
03 - Azure (7:30)
04 - Song (5:20)
05 - You'd be so nice to come home to (9:18)
06 - Rick Kick Shaw (6:06)
07 - Sweet and Lovely (6:38)
Доп. информация: Cecil Taylor p
Steve Lacy ss
Buell Neidlinger b
Dennis Charles dr
 
Отчёт EAC
EAC extraction logfile from 18. December 2007, 19:15 for CD
Cecil Taylor / Jazz Advance
Used drive : HL-DT-STDVDRAM GSA-4163B Adapter: 1 ID: 1
Read mode : Secure with NO C2, accurate stream, disable cache
Read offset correction : 667
Overread into Lead-In and Lead-Out : No
Used output format : Internal WAV Routines
44.100 Hz; 16 Bit; Stereo
Other options :
Fill up missing offset samples with silence : Yes
Delete leading and trailing silent blocks : No
Installed external ASPI interface
Track 1
Filename D:\Cecil Taylor - Jazz Advance (1956)[FLAC]{Blue Note}\01 - Bemsha Swing.wav
Pre-gap length 0:00:02.00
Peak level 92.1 %
Test CRC 54ADCCD7
Copy CRC 54ADCCD7
Copy OK
Track 2
Filename D:\Cecil Taylor - Jazz Advance (1956)[FLAC]{Blue Note}\02 - Charge 'em Blues.wav
Pre-gap length 0:00:01.66
Peak level 92.1 %
Test CRC 61E693BF
Copy CRC 61E693BF
Copy OK
Track 3
Filename D:\Cecil Taylor - Jazz Advance (1956)[FLAC]{Blue Note}\03 - Azure.wav
Pre-gap length 0:00:01.37
Peak level 92.1 %
Test CRC 685EAEA6
Copy CRC 685EAEA6
Copy OK
Track 4
Filename D:\Cecil Taylor - Jazz Advance (1956)[FLAC]{Blue Note}\04 - Song.wav
Pre-gap length 0:00:01.67
Peak level 87.1 %
Test CRC E4E46312
Copy CRC E4E46312
Copy OK
Track 5
Filename D:\Cecil Taylor - Jazz Advance (1956)[FLAC]{Blue Note}\05 - You'd be so nice to come home to.wav
Pre-gap length 0:00:01.72
Peak level 92.1 %
Test CRC B5E4F1B1
Copy CRC B5E4F1B1
Copy OK
Track 6
Filename D:\Cecil Taylor - Jazz Advance (1956)[FLAC]{Blue Note}\06 - Rick Kick Shaw.wav
Pre-gap length 0:00:01.45
Peak level 92.1 %
Test CRC F9B821B3
Copy CRC F9B821B3
Copy OK
Track 7
Filename D:\Cecil Taylor - Jazz Advance (1956)[FLAC]{Blue Note}\07 - Sweet and Lovely.wav
Pre-gap length 0:00:01.40
Peak level 92.1 %
Test CRC 9C2FD929
Copy CRC 9C2FD929
Copy OK
No errors occured
End of status report
Сесил Тейлор для фри джаза фигура титаническая, не меньше чем Орнетт Колман. Это его первый альбом. Тут Сесил еще звучит так, что я его могу слушать, более познее мне воспринимать тяжело.
Приватный:
Нет (DHT включён)
Размер:
226.04 Мб (237,017,643 байт) » файлов: 14
Участники:
0 раздают, 0 качают (0 участников всего)
Внешние участники:
5 раздают, 1 качают (6 участников всего) [ Обновить ]
Есть вопросы - пишите личное сообщение пользователю M0p94ok.
23:13
62
Нет комментариев. Ваш будет первым!