Вы используете незарегистрированную версию компонента "Вкладки"!

Поиск

(Jazz, Free Improvisation) World Saxophone Quartet - Steppenwolf - 2002, FLAC (tracks+.cue), lossless

(Jazz, Free Improvisation) World Saxophone Quartet - Steppenwolf - 2002, FLAC (tracks+.cue), lossless
Треклист:
World Saxophone Quartet / Steppenwolf
Жанр: Jazz, Free Improvisation
Страна-производитель диска: Canada
Год издания: 2002
Издатель (лейбл): Justin Time
Номер по каталогу: JUST 128-2
Аудиокодек: FLAC (*.flac)
Тип рипа: tracks+.cue
Битрейт аудио: lossless
Продолжительность: 1:12:53
Источник (релизер): Max Monteiro
Наличие сканов в содержимом раздачи: нет
Треклист:
01. Intro 1:06
02. The Crossing (David Murray) 12:40
03. Intro 2:08
04. Li’l Poki (John Purcell) 15:23
05. Intro 0:28
06. Sunrise (aka Brazilian Sunshine) (Taj Mahal) 9:14
07. Giant Steps (John Coltrane) 3:16
08. Intro 0:14
09. Color for Duke (Hamiet Bluiett) 8:35
10. Intro 0:36
11. Toré (John Purcell) 6:09
12. What If (Oliver Lake) 9:29
13. Hattie Wall (Theme Song) (Hamiet Bluiett) 3:36
 
Лог создания рипа
Exact Audio Copy V1.0 beta 3 from 29. August 2011
EAC extraction logfile from 3. February 2013, 17:39
World Saxophone Quartet / Steppenwolf
Used drive : SlimtypeeNAU508 5 Adapter: 1 ID: 0
Read mode : Secure
Utilize accurate stream : Yes
Defeat audio cache : Yes
Make use of C2 pointers : No
Read offset correction : 6
Overread into Lead-In and Lead-Out : No
Fill up missing offset samples with silence : Yes
Delete leading and trailing silent blocks : No
Null samples used in CRC calculations : Yes
Used interface : Native Win32 interface for Win NT & 2000
Gap handling : Appended to previous track
Used output format : User Defined Encoder
Selected bitrate : 768 kBit/s
Quality : High
Add ID3 tag : No
Command line compressor : C:\Program Files (x86)\Exact Audio Copy\Flac\flac.exe
Additional command line options : -8 -V -T "ARTIST=%artist%" -T "TITLE=%title%" -T "ALBUM=%albumtitle%" -T "DATE=%year%" -T "TRACKNUMBER=%tracknr%" -T "GENRE=%genre%" -T "PERFORMER=%albuminterpret%" -T "COMPOSER=%composer%" %haslyrics%--tag-from-file=LYRICS="%lyricsfile%"%haslyrics% -T "ALBUMARTIST=%albumartist%" -T "DISCNUMBER=%cdnumber%" -T "TOTALDISCS=%totalcds%" -T "TOTALTRACKS=%numtracks%" -T "COMMENT=%comment%" %source% -o %dest%
TOC of the extracted CD
Track | Start | Length | Start sector | End sector
---------------------------------------------------------
1 | 0:00.00 | 1:05.66 | 0 | 4940
2 | 1:05.66 | 12:39.67 | 4941 | 61932
3 | 13:45.58 | 2:07.64 | 61933 | 71521
4 | 15:53.47 | 15:23.06 | 71522 | 140752
5 | 31:16.53 | 0:27.57 | 140753 | 142834
6 | 31:44.35 | 9:14.34 | 142835 | 184418
7 | 40:58.69 | 3:15.72 | 184419 | 199115
8 | 44:14.66 | 0:13.57 | 199116 | 200147
9 | 44:28.48 | 8:34.59 | 200148 | 238756
10 | 53:03.32 | 0:35.62 | 238757 | 241443
11 | 53:39.19 | 6:08.72 | 241444 | 269115
12 | 59:48.16 | 9:29.20 | 269116 | 311810
13 | 69:17.36 | 3:35.47 | 311811 | 327982
Track 1
Filename C:\EAC rips\01 - Intro.wav
Pre-gap length 0:00:02.00
Peak level 79.2 %
Extraction speed 1.7 X
Track quality 100.0 %
Test CRC 79BB810B
Copy CRC 79BB810B
Accurately ripped (confidence 4) [73BDEA3F] (AR v1)
Copy OK
Track 2
Filename C:\EAC rips\02 - The Crossing.wav
Peak level 100.0 %
Extraction speed 3.0 X
Track quality 100.0 %
Test CRC CD9F3386
Copy CRC CD9F3386
Accurately ripped (confidence 4) [85C99790] (AR v1)
Copy OK
Track 3
Filename C:\EAC rips\03 - Intro.wav
Peak level 82.7 %
Extraction speed 2.7 X
Track quality 100.0 %
Test CRC 2C7AD27A
Copy CRC 2C7AD27A
Accurately ripped (confidence 4) [6A6D616A] (AR v1)
Copy OK
Track 4
Filename C:\EAC rips\04 - Li'l Poki.wav
Peak level 99.8 %
Extraction speed 3.8 X
Track quality 100.0 %
Test CRC 11ACD80F
Copy CRC 11ACD80F
Accurately ripped (confidence 4) [51B09688] (AR v1)
Copy OK
Track 5
Filename C:\EAC rips\05 - Intro.wav
Peak level 26.8 %
Extraction speed 1.8 X
Track quality 100.0 %
Test CRC 191D6BB7
Copy CRC 191D6BB7
Accurately ripped (confidence 4) [EDF93489] (AR v1)
Copy OK
Track 6
Filename C:\EAC rips\06 - Sunrise.wav
Peak level 99.8 %
Extraction speed 3.8 X
Track quality 99.9 %
Test CRC 6DBB2355
Copy CRC 6DBB2355
Accurately ripped (confidence 4) [8FA4C9CC] (AR v1)
Copy OK
Track 7
Filename C:\EAC rips\07 - Giant Steps.wav
Peak level 100.0 %
Extraction speed 4.0 X
Track quality 100.0 %
Test CRC DF036FD1
Copy CRC DF036FD1
Accurately ripped (confidence 4) [16FB187D] (AR v1)
Copy OK
Track 8
Filename C:\EAC rips\08 - Intro.wav
Peak level 15.8 %
Extraction speed 1.2 X
Track quality 100.0 %
Test CRC 430904AB
Copy CRC 430904AB
Accurately ripped (confidence 4) [68AD125D] (AR v1)
Copy OK
Track 9
Filename C:\EAC rips\09 - Color for Duke.wav
Peak level 99.8 %
Extraction speed 4.6 X
Track quality 100.0 %
Test CRC 2A88D3CE
Copy CRC 2A88D3CE
Accurately ripped (confidence 4) [B6E0C4B6] (AR v1)
Copy OK
Track 10
Filename C:\EAC rips\10 - Intro.wav
Peak level 27.8 %
Extraction speed 1.3 X
Track quality 99.7 %
Test CRC EE744B94
Copy CRC EE744B94
Accurately ripped (confidence 4) [5636580A] (AR v1)
Copy OK
Track 11
Filename C:\EAC rips\11 - Toré.wav
Peak level 99.8 %
Extraction speed 4.8 X
Track quality 100.0 %
Test CRC 745C0E7C
Copy CRC 745C0E7C
Accurately ripped (confidence 4) [E91B20B8] (AR v1)
Copy OK
Track 12
Filename C:\EAC rips\12 - What If.wav
Peak level 99.8 %
Extraction speed 5.2 X
Track quality 100.0 %
Test CRC 8CE2B46A
Copy CRC 8CE2B46A
Accurately ripped (confidence 4) [0F371CF2] (AR v1)
Copy OK
Track 13
Filename C:\EAC rips\13 - Hattie Wall (Theme Song).wav
Peak level 99.5 %
Extraction speed 4.8 X
Track quality 100.0 %
Test CRC 79D03D7D
Copy CRC 79D03D7D
Accurately ripped (confidence 4) [F07825C5] (AR v1)
Copy OK
All tracks accurately ripped
No errors occurred
End of status report
---- CUETools DB Plugin V2.1.4
[CTDB TOCID: s.22HqywT4bEHNGUVj9qpvtkmmY-] found
Submit result: already submitted
Track | CTDB Status
1 | (5/5) Accurately ripped
2 | (5/5) Accurately ripped
3 | (5/5) Accurately ripped
4 | (5/5) Accurately ripped
5 | (5/5) Accurately ripped
6 | (5/5) Accurately ripped
7 | (5/5) Accurately ripped
8 | (5/5) Accurately ripped
9 | (5/5) Accurately ripped
10 | (5/5) Accurately ripped
11 | (5/5) Accurately ripped
12 | (5/5) Accurately ripped
13 | (5/5) Accurately ripped
==== Log checksum 83C21F002CDC15E36139E26A99023B1F9AA0C7258450B0DD7C04C6E7119F6689 ====
 
Содержание индексной карты (.CUE)
REM GENRE Jazz
REM DATE 2002
REM DISCID C611150D
REM COMMENT "ExactAudioCopy v1.0b3"
PERFORMER "World Saxophone Quartet"
TITLE "Steppenwolf"
FILE "01 - Intro.wav" WAVE
TRACK 01 AUDIO
TITLE "Intro"
PERFORMER "World Saxophone Quartet"
INDEX 01 00:00:00
FILE "02 - The Crossing.wav" WAVE
TRACK 02 AUDIO
TITLE "The Crossing"
PERFORMER "World Saxophone Quartet"
INDEX 01 00:00:00
FILE "03 - Intro.wav" WAVE
TRACK 03 AUDIO
TITLE "Intro"
PERFORMER "World Saxophone Quartet"
INDEX 01 00:00:00
FILE "04 - Li'l Poki.wav" WAVE
TRACK 04 AUDIO
TITLE "Li'l Poki"
PERFORMER "World Saxophone Quartet"
INDEX 01 00:00:00
FILE "05 - Intro.wav" WAVE
TRACK 05 AUDIO
TITLE "Intro"
PERFORMER "World Saxophone Quartet"
INDEX 01 00:00:00
FILE "06 - Sunrise.wav" WAVE
TRACK 06 AUDIO
TITLE "Sunrise"
PERFORMER "World Saxophone Quartet"
INDEX 01 00:00:00
FILE "07 - Giant Steps.wav" WAVE
TRACK 07 AUDIO
TITLE "Giant Steps"
PERFORMER "World Saxophone Quartet"
INDEX 01 00:00:00
FILE "08 - Intro.wav" WAVE
TRACK 08 AUDIO
TITLE "Intro"
PERFORMER "World Saxophone Quartet"
INDEX 01 00:00:00
FILE "09 - Color for Duke.wav" WAVE
TRACK 09 AUDIO
TITLE "Color for Duke"
PERFORMER "World Saxophone Quartet"
INDEX 01 00:00:00
FILE "10 - Intro.wav" WAVE
TRACK 10 AUDIO
TITLE "Intro"
PERFORMER "World Saxophone Quartet"
INDEX 01 00:00:00
FILE "11 - Toré.wav" WAVE
TRACK 11 AUDIO
TITLE "Toré"
PERFORMER "World Saxophone Quartet"
INDEX 01 00:00:00
FILE "12 - What If.wav" WAVE
TRACK 12 AUDIO
TITLE "What If"
PERFORMER "World Saxophone Quartet"
INDEX 01 00:00:00
FILE "13 - Hattie Wall (Theme Song).wav" WAVE
TRACK 13 AUDIO
TITLE "Hattie Wall (Theme Song)"
PERFORMER "World Saxophone Quartet"
INDEX 01 00:00:00
Доп. информация:
Recorded live at The Steppenwolf Theater, Chicago, March 1, 1999.
 
Состав
David Murray – Tenor Saxophone, Bass Clarinet
John Purcell – Soprano Saxophone, Clarinet
Oliver Lake – Alto Saxophone
Hamiet Bluiett – Baritone Saxophone
Any questions -> support@pro-jazz.com. По всем вопросам пишите -> support@pro-jazz.com
08:38
146
Нет комментариев. Ваш будет первым!