Вы используете незарегистрированную версию компонента "Вкладки"!

Поиск

(Free Jazz, Contemporary Jazz, Post-Bop) Gavin Templeton (w/ Larry Koonse, Darek Oles, Gary Fukushima, Joe LaBarbera) - Asterperious Special - 2012, FLAC (tracks+.cue), lossless

(Free Jazz, Contemporary Jazz, Post-Bop) Gavin Templeton (w/ Larry Koonse, Darek Oles, Gary Fukushima, Joe LaBarbera) - Asterperious Special - 2012, FLAC (tracks+.cue), lossless
Треклист:
Gavin Templeton (w/ Larry Koonse, Darek Oles, Gary Fukushima, Joe LaBarbera) / Asterperious Special
Жанр: Free Jazz, Contemporary Jazz, Post-Bop
Страна-производитель диска: US
Год издания: 2012
Издатель (лейбл): 9 Winds
Номер по каталогу: NWCD 0294
Страна: US
Аудиокодек: FLAC (*.flac)
Тип рипа: tracks+.cue
Битрейт аудио: lossless
Продолжительность: 57:20
Источник (релизер): свой фирменный диск
Наличие сканов в содержимом раздачи: нет
Треклист:
1. December
2. Asterperious Special
3. Misplaced Optimism
4. The Divide
5. Around Arroyo
6. Grace In Concession
7. Terminal
8. Row
9. Whistler
10. Ya Moosh!
 
Лог создания рипа
Exact Audio Copy V1.0 beta 3 from 29. August 2011
EAC extraction logfile from 2. February 2013, 21:06
Gavin Templeton / Asterperious Special
Used drive : PIONEER DVD-RW DVR-115D Adapter: 0 ID: 0
Read mode : Secure
Utilize accurate stream : Yes
Defeat audio cache : Yes
Make use of C2 pointers : No
Read offset correction : 48
Overread into Lead-In and Lead-Out : No
Fill up missing offset samples with silence : Yes
Delete leading and trailing silent blocks : No
Null samples used in CRC calculations : Yes
Used interface : Installed external ASPI interface
Gap handling : Appended to previous track
Used output format : User Defined Encoder
Selected bitrate : 896 kBit/s
Quality : High
Add ID3 tag : No
Command line compressor : C:\Program Files\Exact Audio Copy\FLAC\FLAC.EXE
Additional command line options : -6 -V -T "ARTIST=%artist%" -T "TITLE=%title%" -T "ALBUM=%albumtitle%" -T "DATE=%year%" -T "TRACKNUMBER=%tracknr%" -T "GENRE=%genre%" -T "COMMENT=%comment%" -T "BAND=%albuminterpret%" -T "COMPOSER=%composer%" %haslyrics%--tag-from-file=LYRICS="%lyricsfile%"%haslyrics% -T "DISCNUMBER=%cdnumber%" -T "TOTALDISCS=%totalcds%" -T "TOTALTRACKS=%numtracks%" %hascover%--picture="%coverfile%"%hascover% %source% -o %dest%
TOC of the extracted CD
Track | Start | Length | Start sector | End sector
---------------------------------------------------------
1 | 0:00.00 | 7:07.39 | 0 | 32063
2 | 7:07.39 | 8:24.69 | 32064 | 69932
3 | 15:32.33 | 6:41.32 | 69933 | 100039
4 | 22:13.65 | 6:32.10 | 100040 | 129449
5 | 28:46.00 | 5:04.58 | 129450 | 152307
6 | 33:50.58 | 2:20.58 | 152308 | 162865
7 | 36:11.41 | 5:17.22 | 162866 | 186662
8 | 41:28.63 | 5:46.15 | 186663 | 212627
9 | 47:15.03 | 5:02.24 | 212628 | 235301
10 | 52:17.27 | 5:03.24 | 235302 | 258050
Track 1
Filename D:\zzz\01 - December.wav
Pre-gap length 0:00:02.00
Peak level 98.9 %
Extraction speed 4.7 X
Track quality 100.0 %
Test CRC 7FF90BCE
Copy CRC 7FF90BCE
Track not present in AccurateRip database
Copy OK
Track 2
Filename D:\zzz\02 - Asterperious Special.wav
Peak level 98.9 %
Extraction speed 5.6 X
Track quality 100.0 %
Test CRC 4B7471C4
Copy CRC 4B7471C4
Track not present in AccurateRip database
Copy OK
Track 3
Filename D:\zzz\03 - Misplaced Optimism.wav
Pre-gap length 0:00:01.48
Peak level 98.8 %
Extraction speed 6.2 X
Track quality 100.0 %
Test CRC 2DED75ED
Copy CRC 2DED75ED
Track not present in AccurateRip database
Copy OK
Track 4
Filename D:\zzz\04 - The Divide.wav
Peak level 98.9 %
Extraction speed 6.7 X
Track quality 100.0 %
Test CRC 0CBE4C5C
Copy CRC 0CBE4C5C
Track not present in AccurateRip database
Copy OK
Track 5
Filename D:\zzz\05 - Around Arroyo.wav
Pre-gap length 0:00:01.10
Peak level 98.9 %
Extraction speed 6.3 X
Track quality 99.9 %
Test CRC 032EB101
Copy CRC 032EB101
Track not present in AccurateRip database
Copy OK
Track 6
Filename D:\zzz\06 - Grace In Concession.wav
Pre-gap length 0:00:01.05
Peak level 98.9 %
Extraction speed 5.3 X
Track quality 99.9 %
Test CRC 053A0EAF
Copy CRC 053A0EAF
Track not present in AccurateRip database
Copy OK
Track 7
Filename D:\zzz\07 - Terminal.wav
Peak level 98.9 %
Extraction speed 7.4 X
Track quality 100.0 %
Test CRC C3F82BC8
Copy CRC C3F82BC8
Track not present in AccurateRip database
Copy OK
Track 8
Filename D:\zzz\08 - Row.wav
Peak level 98.8 %
Extraction speed 7.8 X
Track quality 100.0 %
Test CRC 4E9ABFAE
Copy CRC 4E9ABFAE
Track not present in AccurateRip database
Copy OK
Track 9
Filename D:\zzz\09 - Whistler.wav
Peak level 98.9 %
Extraction speed 8.0 X
Track quality 100.0 %
Test CRC FD239E78
Copy CRC FD239E78
Track not present in AccurateRip database
Copy OK
Track 10
Filename D:\zzz\10 - Ya Moosh!.wav
Peak level 98.9 %
Extraction speed 8.2 X
Track quality 100.0 %
Test CRC C8B52D24
Copy CRC C8B52D24
Track not present in AccurateRip database
Copy OK
None of the tracks are present in the AccurateRip database
No errors occurred
End of status report
==== Log checksum 8F00EE347A53FB56E1BD5B60AA3E375B349F7F260EC90ED87AF6EB162675413F ====
 
Содержание индексной карты (.CUE)
REM GENRE Jazz
REM DATE 2012
REM DISCID 860D700A
REM COMMENT "ExactAudioCopy v1.0b3"
PERFORMER "Gavin Templeton"
TITLE "Asterperious Special"
FILE "01 - December.wav" WAVE
TRACK 01 AUDIO
TITLE "December"
PERFORMER "Gavin Templeton"
INDEX 01 00:00:00
FILE "02 - Asterperious Special.wav" WAVE
TRACK 02 AUDIO
TITLE "Asterperious Special"
PERFORMER "Gavin Templeton"
INDEX 01 00:00:00
TRACK 03 AUDIO
TITLE "Misplaced Optimism"
PERFORMER "Gavin Templeton"
INDEX 00 08:23:21
FILE "03 - Misplaced Optimism.wav" WAVE
INDEX 01 00:00:00
FILE "04 - The Divide.wav" WAVE
TRACK 04 AUDIO
TITLE "The Divide"
PERFORMER "Gavin Templeton"
INDEX 01 00:00:00
TRACK 05 AUDIO
TITLE "Around Arroyo"
PERFORMER "Gavin Templeton"
INDEX 00 06:31:00
FILE "05 - Around Arroyo.wav" WAVE
INDEX 01 00:00:00
TRACK 06 AUDIO
TITLE "Grace In Concession"
PERFORMER "Gavin Templeton"
INDEX 00 05:03:53
FILE "06 - Grace In Concession.wav" WAVE
INDEX 01 00:00:00
FILE "07 - Terminal.wav" WAVE
TRACK 07 AUDIO
TITLE "Terminal"
PERFORMER "Gavin Templeton"
INDEX 01 00:00:00
FILE "08 - Row.wav" WAVE
TRACK 08 AUDIO
TITLE "Row"
PERFORMER "Gavin Templeton"
INDEX 01 00:00:00
FILE "09 - Whistler.wav" WAVE
TRACK 09 AUDIO
TITLE "Whistler"
PERFORMER "Gavin Templeton"
INDEX 01 00:00:00
FILE "10 - Ya Moosh!.wav" WAVE
TRACK 10 AUDIO
TITLE "Ya Moosh!"
PERFORMER "Gavin Templeton"
INDEX 01 00:00:00
 
Лог проверки качества
d:\>d:\aucdtect -d/-m0 d:\zzz\*.wav
auCDtect: CD records authenticity detector, version 0.8.2
Copyright (c) 2004 Oleg Berngardt. All rights reserved.
Copyright (c) 2004 Alexander Djourik. All rights reserved.
------------------------------------------------------------
Processing file: [01. December.wav]
------------------------------------------------------------
This track looks like CDDA with probability 100%
------------------------------------------------------------
Processing file: [02. Asterperious Special.wav]
------------------------------------------------------------
This track looks like CDDA with probability 100%
------------------------------------------------------------
Processing file: [03. Misplaced Optimism.wav]
------------------------------------------------------------
This track looks like CDDA with probability 99%
------------------------------------------------------------
Processing file: [04. The Divide.wav]
------------------------------------------------------------
This track looks like CDDA with probability 100%
------------------------------------------------------------
Processing file: [05. Around Arroyo.wav]
------------------------------------------------------------
This track looks like CDDA with probability 100%
------------------------------------------------------------
Processing file: [06. Grace In Concession.wav]
------------------------------------------------------------
This track looks like CDDA with probability 100%
------------------------------------------------------------
Processing file: [07. Terminal.wav]
------------------------------------------------------------
This track looks like CDDA with probability 100%
------------------------------------------------------------
Processing file: [08. Row.wav]
------------------------------------------------------------
This track looks like CDDA with probability 100%
------------------------------------------------------------
Processing file: [09. Whistler.wav]
------------------------------------------------------------
This track looks like CDDA with probability 100%
------------------------------------------------------------
Processing file: [10. Ya Moosh!.wav]
------------------------------------------------------------
This track looks like CDDA with probability 100%
------------------------------------------------------------
Final Conclusion:
------------------------------------------------------------
These tracks looks like CDDA with probability 100%
Доп. информация:
 
Album Info
All music is composed by Gavin Templeton
Recorded at Roy o. Disney Music Hall in Valencia CA on January 8, 2010
Sound engineered by John Baffa, courtesy of TV Tray Studios
Mixed by John Baffa at TV Tray Studios
Mastered by Ron McMaster at Capitol Mastering
Album Art + Design by Kio Griffith / 9rpm.com
 
Состав
Gavin Templeton alto saxophone
Larry Koonse guitar
Gary Fukushima piano
Darek Oles bass
Joe LaBarbera drums
Any questions -> support@pro-jazz.com. По всем вопросам пишите -> support@pro-jazz.com
08:37
188
Нет комментариев. Ваш будет первым!