Вы используете незарегистрированную версию компонента "Вкладки"!

Поиск

(Jazz, Free Improvisation) World Saxophone Quartet - Takin' It 2 the Next Level - 1996, FLAC (tracks+.cue), lossless

(Jazz, Free Improvisation) World Saxophone Quartet - Takin' It 2 the Next Level - 1996, FLAC (tracks+.cue), lossless
Треклист:
World Saxophone Quartet / Takin’ It 2 the Next Level
Жанр: Jazz, Free Improvisation
Страна-производитель диска: Canada
Год издания: 1996
Издатель (лейбл): Justin Time
Номер по каталогу: JUST 93-2
Аудиокодек: FLAC (*.flac)
Тип рипа: tracks+.cue
Битрейт аудио: lossless
Продолжительность: 1:07:08
Источник (релизер): Max Monteiro
Наличие сканов в содержимом раздачи: нет
Треклист:
1. Wiring (Oliver Lake) 6:31
2. Soft Landing (Oliver Lake) 1:13
3. Rio (Oliver Lake) 7:32
4. The Peace Before (Donald Blackman) 1:25
5. Blues for a Warrior Spirit (Hamiet Bluiett) 13:09
6. The Desegregation of Our Children (David Murray) 12:38
7. When the Monarchs Come to Town (David Murray) 2:52
8. Endless Flight (Ronnie Burrage) 7:40
9. Ballad After Us (John Purcell) 4:39
10. Australopithecus (Antonio Underwood) 9:30
 
Лог создания рипа
Exact Audio Copy V1.0 beta 3 from 29. August 2011
EAC extraction logfile from 3. February 2013, 21:40
World Saxophone Quartet / Takin' It 2 the Next Level
Used drive : SlimtypeeNAU508 5 Adapter: 1 ID: 0
Read mode : Secure
Utilize accurate stream : Yes
Defeat audio cache : Yes
Make use of C2 pointers : No
Read offset correction : 6
Overread into Lead-In and Lead-Out : No
Fill up missing offset samples with silence : Yes
Delete leading and trailing silent blocks : No
Null samples used in CRC calculations : Yes
Used interface : Native Win32 interface for Win NT & 2000
Gap handling : Appended to previous track
Used output format : User Defined Encoder
Selected bitrate : 768 kBit/s
Quality : High
Add ID3 tag : No
Command line compressor : C:\Program Files (x86)\Exact Audio Copy\Flac\flac.exe
Additional command line options : -8 -V -T "ARTIST=%artist%" -T "TITLE=%title%" -T "ALBUM=%albumtitle%" -T "DATE=%year%" -T "TRACKNUMBER=%tracknr%" -T "GENRE=%genre%" -T "PERFORMER=%albuminterpret%" -T "COMPOSER=%composer%" %haslyrics%--tag-from-file=LYRICS="%lyricsfile%"%haslyrics% -T "ALBUMARTIST=%albumartist%" -T "DISCNUMBER=%cdnumber%" -T "TOTALDISCS=%totalcds%" -T "TOTALTRACKS=%numtracks%" -T "COMMENT=%comment%" %source% -o %dest%
TOC of the extracted CD
Track | Start | Length | Start sector | End sector
---------------------------------------------------------
1 | 0:00.00 | 6:31.05 | 0 | 29329
2 | 6:31.05 | 1:12.55 | 29330 | 34784
3 | 7:43.60 | 7:32.27 | 34785 | 68711
4 | 15:16.12 | 1:24.70 | 68712 | 75081
5 | 16:41.07 | 13:09.15 | 75082 | 134271
6 | 29:50.22 | 12:38.18 | 134272 | 191139
7 | 42:28.40 | 2:51.65 | 191140 | 204029
8 | 45:20.30 | 7:39.42 | 204030 | 238496
9 | 52:59.72 | 4:38.43 | 238497 | 259389
10 | 57:38.40 | 9:29.60 | 259390 | 302124
Track 1
Filename C:\EAC rips\01 - Wiring.wav
Pre-gap length 0:00:02.00
Peak level 100.0 %
Extraction speed 1.1 X
Track quality 99.9 %
Test CRC F8F9FE64
Copy CRC F8F9FE64
Accurately ripped (confidence 2) [9D24AE76] (AR v1)
Copy OK
Track 2
Filename C:\EAC rips\02 - Soft Landing.wav
Pre-gap length 0:00:02.25
Peak level 54.5 %
Extraction speed 0.7 X
Track quality 99.8 %
Test CRC 6009C202
Copy CRC 6009C202
Accurately ripped (confidence 2) [1D71787B] (AR v1)
Copy OK
Track 3
Filename C:\EAC rips\03 - Rio.wav
Pre-gap length 0:00:00.40
Peak level 98.8 %
Extraction speed 1.5 X
Track quality 100.0 %
Test CRC 6CF63967
Copy CRC 6CF63967
Accurately ripped (confidence 2) [9E38731C] (AR v1)
Copy OK
Track 4
Filename C:\EAC rips\04 - The Peace Before.wav
Pre-gap length 0:00:01.62
Peak level 96.6 %
Extraction speed 1.2 X
Track quality 100.0 %
Test CRC 91D0EA25
Copy CRC 91D0EA25
Accurately ripped (confidence 2) [CF281282] (AR v1)
Copy OK
Track 5
Filename C:\EAC rips\05 - Blues for a Warrior Spirit.wav
Pre-gap length 0:00:01.05
Peak level 100.0 %
Extraction speed 1.8 X
Track quality 100.0 %
Test CRC 57CAEF07
Copy CRC 57CAEF07
Accurately ripped (confidence 2) [7B1B0686] (AR v1)
Copy OK
Track 6
Filename C:\EAC rips\06 - The Desegregation of Our Children.wav
Pre-gap length 0:00:00.30
Peak level 98.0 %
Extraction speed 2.0 X
Track quality 99.9 %
Test CRC EF563BDE
Copy CRC EF563BDE
Accurately ripped (confidence 2) [5A1B4289] (AR v1)
Copy OK
Track 7
Filename C:\EAC rips\07 - When the Monarchs Come to Town.wav
Pre-gap length 0:00:02.50
Peak level 98.6 %
Extraction speed 1.9 X
Track quality 100.0 %
Test CRC 64AE0932
Copy CRC 64AE0932
Accurately ripped (confidence 2) [E6758B0F] (AR v1)
Copy OK
Track 8
Filename C:\EAC rips\08 - Endless Flight.wav
Pre-gap length 0:00:00.43
Peak level 97.8 %
Extraction speed 2.2 X
Track quality 100.0 %
Test CRC EA2EBFA2
Copy CRC EA2EBFA2
Accurately ripped (confidence 2) [C4BB06C2] (AR v1)
Copy OK
Track 9
Filename C:\EAC rips\09 - Ballad After Us.wav
Pre-gap length 0:00:03.47
Peak level 94.6 %
Extraction speed 2.0 X
Track quality 99.9 %
Test CRC B638043B
Copy CRC B638043B
Accurately ripped (confidence 2) [D2F71FFC] (AR v1)
Copy OK
Track 10
Filename C:\EAC rips\10 - Australopithecus.wav
Pre-gap length 0:00:01.60
Peak level 100.0 %
Extraction speed 2.5 X
Track quality 100.0 %
Test CRC 7A224C01
Copy CRC 7A224C01
Accurately ripped (confidence 2) [DDD00970] (AR v1)
Copy OK
All tracks accurately ripped
No errors occurred
End of status report
---- CUETools DB Plugin V2.1.4
[CTDB TOCID: HEcKJDntEn_HTRDFFC08q4cz0F4-] disk not present in database
Submit result: HEcKJDntEn_HTRDFFC08q4cz0F4- has been uploaded
==== Log checksum 5F9703223CF25308298CE55D4EBB7755BEC5BFC355BCAA605368D66BE6BAB4AE ====
 
Содержание индексной карты (.CUE)
REM GENRE Jazz
REM DATE 1996
REM DISCID 7C0FBC0A
REM COMMENT "ExactAudioCopy v1.0b3"
PERFORMER "World Saxophone Quartet"
TITLE "Takin' It 2 the Next Level"
FILE "01 - Wiring.wav" WAVE
TRACK 01 AUDIO
TITLE "Wiring"
PERFORMER "World Saxophone Quartet"
ISRC CAJ229611700
INDEX 01 00:00:00
TRACK 02 AUDIO
TITLE "Soft Landing"
PERFORMER "World Saxophone Quartet"
ISRC CAJ229611710
INDEX 00 06:28:55
FILE "02 - Soft Landing.wav" WAVE
INDEX 01 00:00:00
TRACK 03 AUDIO
TITLE "Rio"
PERFORMER "World Saxophone Quartet"
ISRC CAJ229611720
INDEX 00 01:12:15
FILE "03 - Rio.wav" WAVE
INDEX 01 00:00:00
TRACK 04 AUDIO
TITLE "The Peace Before"
PERFORMER "World Saxophone Quartet"
ISRC CAJ229611730
INDEX 00 07:30:40
FILE "04 - The Peace Before.wav" WAVE
INDEX 01 00:00:00
TRACK 05 AUDIO
TITLE "Blues for a Warrior Spirit"
PERFORMER "World Saxophone Quartet"
ISRC CAJ229611740
INDEX 00 01:23:65
FILE "05 - Blues for a Warrior Spirit.wav" WAVE
INDEX 01 00:00:00
TRACK 06 AUDIO
TITLE "The Desegregation of Our Children"
PERFORMER "World Saxophone Quartet"
ISRC CAJ229611750
INDEX 00 13:08:60
FILE "06 - The Desegregation of Our Children.wav" WAVE
INDEX 01 00:00:00
TRACK 07 AUDIO
TITLE "When the Monarchs Come to Town"
PERFORMER "World Saxophone Quartet"
ISRC CAJ229611760
INDEX 00 12:35:43
FILE "07 - When the Monarchs Come to Town.wav" WAVE
INDEX 01 00:00:00
TRACK 08 AUDIO
TITLE "Endless Flight"
PERFORMER "World Saxophone Quartet"
ISRC CAJ229611770
INDEX 00 02:51:22
FILE "08 - Endless Flight.wav" WAVE
INDEX 01 00:00:00
TRACK 09 AUDIO
TITLE "Ballad After Us"
PERFORMER "World Saxophone Quartet"
ISRC CAJ229611780
INDEX 00 07:35:70
FILE "09 - Ballad After Us.wav" WAVE
INDEX 01 00:00:00
TRACK 10 AUDIO
TITLE "Australopithecus"
PERFORMER "World Saxophone Quartet"
ISRC CAJ229611790
INDEX 00 04:36:58
FILE "10 - Australopithecus.wav" WAVE
INDEX 01 00:00:00
Доп. информация: Recorded at Beartracks Studio, Suffern, New York, June 10th, 11th and 12th, 1996.
 
Состав
David Murray – Tenor Saxophone, Bass Clarinet on « When the Monarchs Come to Town »
Hamiet Bluiett – Baritone Saxophone
Oliver Lake – Alto Saxophone
John R. Purcell – Saxello, Tenor Saxophone on « The Desegregation of Our Children »
Donald Blackman – Piano and Keyboards
Calvin Jones – Acoustic and Electric Bass
Ronnie Burrage – Drums, Shékéré, Tamboura, Floor Toms, Vocals, Keyboards, A’gogo Bells, Tambourine and other miscellaneous percussion
Any questions -> support@pro-jazz.com. По всем вопросам пишите -> support@pro-jazz.com
08:39
137
Нет комментариев. Ваш будет первым!