Вы используете незарегистрированную версию компонента "Вкладки"!

Поиск

(Jazz, Free Improvisation) The Cosmosamatics (Sonny Simmons/Michael Marcus/Clifford Barbaro/Jay Rosen) - Reeds & Birds - 2004, FLAC (tracks+.cue), lossless

Треклист:
The Cosmosamatics (Sonny Simmons/Michael Marcus/Clifford Barbaro/Jay Rosen) - Reeds & Birds
Жанр: Jazz, Free Improvisation
Год выпуска диска: 2004
Производитель диска: Poland
Label: Not Two records MW 757-2
Аудио кодек: FLAC
Тип рипа: tracks+.cue + Artwork
Битрейт аудио: lossless
Продолжительность: 57:00
Происхождение рипа: собственный рип с оригинального диска.
Треклист:
01. Intoxicating Galaxies [01:38]
02. Cheryl (take 1) [04:21]
03. Drifting On A Reed [03:19]
04. 49th Street Stomp [08:38]
05. Ballad Medley: Autumn In New York / In A Sentimental Mood [05:21]
06. Bird Feathers [03:53]
07. Cheryl (take 2) [05:14]
08. Avant Garde Destruct (live) [24:36]
Доп. информация:
Sonny Simmons - alto sax, English horn, vocals
Michael Marcus - tenor sax, saxello, Bb clarinet
Clifford Barbaro - drums (#1-7)
Jay Rosen - drums (#8)
Recorded (#1-7) by Joe Carter at Velvet Swan Recording, NYC, Sept. 9, 2004
(#8) live at the Katsan Club in Prague, Czech Republic, April 19, 2004
Mixed by Alex Aliferis at Studio Forever, Progressive Music, Sept. 29, 2004
 
EAC log
Exact Audio Copy V0.99 prebeta 5 from 4. May 2009
EAC extraction logfile from 20. August 2010, 0:01
The Cosmosamatics / Reeds & Birds
Used drive : HL-DT-STDVD-ROM GDR8162B Adapter: 1 ID: 1
Read mode : Secure
Utilize accurate stream : Yes
Defeat audio cache : Yes
Make use of C2 pointers : No
Read offset correction : 102
Overread into Lead-In and Lead-Out : Yes
Fill up missing offset samples with silence : Yes
Delete leading and trailing silent blocks : No
Null samples used in CRC calculations : Yes
Used interface : Installed external ASPI interface
Gap handling : Appended to previous track
Used output format : User Defined Encoder
Selected bitrate : 768 kBit/s
Quality : High
Add ID3 tag : No
Command line compressor : C:\Program Files\FLAC\flac.exe
Additional command line options : -V -8 -T "ARTIST=%a" -T "TITLE=%t" -T "ALBUM=%g" -T "TRACKNUMBER=%n" -T "GENRE=%m" %s
TOC of the extracted CD
Track | Start | Length | Start sector | End sector
---------------------------------------------------------
1 | 0:00.00 | 1:38.32 | 0 | 7381
2 | 1:38.32 | 4:21.00 | 7382 | 26956
3 | 5:59.32 | 3:18.47 | 26957 | 41853
4 | 9:18.04 | 8:38.62 | 41854 | 80765
5 | 17:56.66 | 5:20.60 | 80766 | 104825
6 | 23:17.51 | 3:52.24 | 104826 | 122249
7 | 27:10.00 | 5:14.12 | 122250 | 145811
8 | 32:24.12 | 24:36.39 | 145812 | 256550
Track 1
Filename C:\ru up\Cosmosamatics\01 - Intoxicating Galaxies.wav
Pre-gap length 0:00:02.00
Peak level 94.8 %
Track quality 100.0 %
Copy CRC 088B440E
Track not present in AccurateRip database
Copy OK
Track 2
Filename C:\ru up\Cosmosamatics\02 - Cheryl (take 1).wav
Pre-gap length 0:00:01.74
Peak level 96.5 %
Track quality 99.9 %
Test CRC 6D527FBF
Copy CRC 6D527FBF
Track not present in AccurateRip database
Copy OK
Track 3
Filename C:\ru up\Cosmosamatics\03 - Drifting On A Reed.wav
Pre-gap length 0:00:02.00
Peak level 96.5 %
Track quality 100.0 %
Test CRC 5779F3E0
Copy CRC 5779F3E0
Track not present in AccurateRip database
Copy OK
Track 4
Filename C:\ru up\Cosmosamatics\04 - 49th Street Stomp.wav
Pre-gap length 0:00:02.00
Peak level 96.6 %
Track quality 100.0 %
Test CRC DFC59613
Copy CRC DFC59613
Track not present in AccurateRip database
Copy OK
Track 5
Filename C:\ru up\Cosmosamatics\05 - Ballad Medley- Autumn In New York , In A Sentimental Mood.wav
Pre-gap length 0:00:02.00
Peak level 100.0 %
Track quality 100.0 %
Test CRC F9424D43
Copy CRC F9424D43
Track not present in AccurateRip database
Copy OK
Track 6
Filename C:\ru up\Cosmosamatics\06 - Bird Feathers.wav
Pre-gap length 0:00:02.00
Peak level 96.5 %
Track quality 100.0 %
Test CRC C2633066
Copy CRC C2633066
Track not present in AccurateRip database
Copy OK
Track 7
Filename C:\ru up\Cosmosamatics\07 - Cheryl (take 2).wav
Pre-gap length 0:00:02.00
Peak level 96.5 %
Track quality 99.9 %
Test CRC 4BEA7471
Copy CRC 4BEA7471
Track not present in AccurateRip database
Copy OK
Track 8
Filename C:\ru up\Cosmosamatics\08 - Avant Garde Destruct (live).wav
Pre-gap length 0:00:02.00
Peak level 99.9 %
Track quality 100.0 %
Test CRC E5AE6389
Copy CRC E5AE6389
Track not present in AccurateRip database
Copy OK
None of the tracks are present in the AccurateRip database
No errors occurred
End of status report
 
cue
REM GENRE Jazz
REM DATE 2004
REM DISCID 5E0D5C08
REM COMMENT "ExactAudioCopy v0.99pb5"
PERFORMER "The Cosmosamatics"
TITLE "Reeds & Birds"
FILE "01 - Intoxicating Galaxies.wav" WAVE
TRACK 01 AUDIO
TITLE "Intoxicating Galaxies"
PERFORMER "The Cosmosamatics"
INDEX 01 00:00:00
TRACK 02 AUDIO
TITLE "Cheryl (take 1)"
PERFORMER "The Cosmosamatics"
INDEX 00 01:36:33
FILE "02 - Cheryl (take 1).wav" WAVE
INDEX 01 00:00:00
TRACK 03 AUDIO
TITLE "Drifting On A Reed"
PERFORMER "The Cosmosamatics"
INDEX 00 04:19:00
FILE "03 - Drifting On A Reed.wav" WAVE
INDEX 01 00:00:00
TRACK 04 AUDIO
TITLE "49th Street Stomp"
PERFORMER "The Cosmosamatics"
INDEX 00 03:16:47
FILE "04 - 49th Street Stomp.wav" WAVE
INDEX 01 00:00:00
TRACK 05 AUDIO
TITLE "Ballad Medley: Autumn In New York / In A Sentimental Mood"
PERFORMER "The Cosmosamatics"
INDEX 00 08:36:62
FILE "05 - Ballad Medley- Autumn In New York , In A Sentimental Mood.wav" WAVE
INDEX 01 00:00:00
TRACK 06 AUDIO
TITLE "Bird Feathers"
PERFORMER "The Cosmosamatics"
INDEX 00 05:18:60
FILE "06 - Bird Feathers.wav" WAVE
INDEX 01 00:00:00
TRACK 07 AUDIO
TITLE "Cheryl (take 2)"
PERFORMER "The Cosmosamatics"
INDEX 00 03:50:24
FILE "07 - Cheryl (take 2).wav" WAVE
INDEX 01 00:00:00
TRACK 08 AUDIO
TITLE "Avant Garde Destruct (live)"
PERFORMER "The Cosmosamatics"
INDEX 00 05:12:12
FILE "08 - Avant Garde Destruct (live).wav" WAVE
INDEX 01 00:00:00
 
Review
Legendary west coast sax great Sonny Simmons never fails to deliver the goods and with the marvelous Cosmosamatics, which features another former west coast sax hero Michael Michael, they
both continue to push each other to further flights and heights with each tour and release. This is the sixth Cosmosamatics disc in less than five years and each has been an engaging gem.
This is the trio version of this band, with no bassist. 'Reeds & Birds' features four songs by Bird (Charlie Parker), one by the band, one by Sonny and one by Michael. Both Sonny and
Michael do a fine job of playing those unpopular horns like the English horn (bassoon-like double reed for Sonny) and the saxello (rare reed in between the size of a soprano and an alto
sax & utilized by Elton Dean). What I dig about this Cosmosamatics offering is that it is more laid back than usual and still sounds very inspired. Sonny's sublime and exotic double reed
(English horn) sounds as hypnotic as a snake charmers' musette, even when they are playing a ballad medley of "Autumn in New York" and "In a Sentimental Mood". The epic-length
closing tune utilizes the talents of CIMP-house drummer Jay Rosen and was recorded live in Prague. Jay plays most impressively spinning quickly as both saxist soar together around him.
Long solos and sax duos make this an event-filled delight. This and every Cosmosamatics release has been a true treasure.
По всем вопросам пишите личное сообщение пользователю M0p94ok.
02:30
152
Нет комментариев. Ваш будет первым!