Вы используете незарегистрированную версию компонента "Вкладки"!

Поиск

(Free Improvisation, Avant-garde Jazz) Marilyn Crispell - Selected Works 1983-1986 Solo, Duo, Quartet - 2001, FLAC (tracks+.cue), lossless

(Free Improvisation, Avant-garde Jazz) Marilyn Crispell - Selected Works 1983-1986 Solo, Duo, Quartet - 2001, FLAC (tracks+.cue), lossless
Треклист:
Marilyn Crispell - Selected Works 1983-1986 Solo, Duo, Quartet
Жанр: Free Improvisation, Avant-garde Jazz
Год выпуска диска: 2001
Производитель диска: England
Label: Golden Years of New Jazz GY 11/12
Аудио кодек: FLAC
Тип рипа: tracks+.cue + Artwork
Битрейт аудио: lossless
Продолжительность: 2:10:03
Происхождение рипа: собственный рип с оригинального диска.
Треклист:
GY 11:
Solo piano
01. Archaic visions part I (11.00)
02. Love (07.27)
03. Rhythms hung in undrawn sky (05.55)
04. Song for Abdullah (08.40)
05. Sadness (07.59)
06. Archaic visions II (07.15)
Duo with Doug James
07. Element air...leap (04.01)
08. Opium dream eyes (08.08)
09. Minstrels (07.52)
GY 12:
Duo with Doug James
01. On and off the beaten track (06.30)
02. Song for Jeanne Lee (03.35)
03. And your ivory voice sings (for Cecil Taylor) (04.53)
04. After the rain (08.32)
Quartet
05. Quartet improvisations, Paris 1986 (38.00)
Доп. информация:
Marilyn Crispell - piano
Doug James - drums (GY11 tracks 7-9; GY12 tracks 1-4)
Marcio Mattos - bass (GY12 track 5)
Didier Petit - cello (GY12 track 5)
Yoval Mincemacher - drums (GY12 track 5)
Tracks GY11 1-6 recorded at Soundscape, NYC on 7 May 1983;
tracks GY11 7-9 and GY12 tracks 1-4 recorded at Woodstock Recording Studio 7-9 March 1985;
track GY12 5 was recorded at Galerie Maximilien Guiol, Paris on 19 November 1986.
Design and artwork by Lora Denis; photograph by Celeste Dorage.
 
EAC log

 
CD 1
Exact Audio Copy V0.99 prebeta 5 from 4. May 2009
EAC extraction logfile from 19. August 2010, 0:38
Marilyn Crispell / Selected Works 1983-1986 Disc 1
Used drive : HL-DT-STDVD-ROM GDR8162B Adapter: 1 ID: 1
Read mode : Secure
Utilize accurate stream : Yes
Defeat audio cache : Yes
Make use of C2 pointers : No
Read offset correction : 102
Overread into Lead-In and Lead-Out : Yes
Fill up missing offset samples with silence : Yes
Delete leading and trailing silent blocks : No
Null samples used in CRC calculations : Yes
Used interface : Installed external ASPI interface
Gap handling : Appended to previous track
Used output format : User Defined Encoder
Selected bitrate : 768 kBit/s
Quality : High
Add ID3 tag : No
Command line compressor : C:\Program Files\FLAC\flac.exe
Additional command line options : -V -8 -T "ARTIST=%a" -T "TITLE=%t" -T "ALBUM=%g" -T "TRACKNUMBER=%n" -T "GENRE=%m" %s
TOC of the extracted CD
Track | Start | Length | Start sector | End sector
---------------------------------------------------------
1 | 0:00.00 | 11:00.62 | 0 | 49561
2 | 11:00.62 | 7:27.59 | 49562 | 83145
3 | 18:28.46 | 5:55.26 | 83146 | 109796
4 | 24:23.72 | 8:40.20 | 109797 | 148816
5 | 33:04.17 | 7:59.16 | 148817 | 184757
6 | 41:03.33 | 7:15.11 | 184758 | 217393
7 | 48:18.44 | 4:01.23 | 217394 | 235491
8 | 52:19.67 | 8:09.14 | 235492 | 272180
9 | 60:29.06 | 7:54.02 | 272181 | 307732
Track 1
Filename C:\ru up\Crispell - Works\CD 1\01 - Archaic Visions, Part I.wav
Pre-gap length 0:00:02.00
Peak level 79.2 %
Track quality 99.9 %
Test CRC 1A59DE88
Copy CRC 1A59DE88
Track not present in AccurateRip database
Copy OK
Track 2
Filename C:\ru up\Crispell - Works\CD 1\02 - Love.wav
Peak level 70.2 %
Track quality 100.0 %
Test CRC 5E85BF94
Copy CRC 5E85BF94
Track not present in AccurateRip database
Copy OK
Track 3
Filename C:\ru up\Crispell - Works\CD 1\03 - Rhythms Hung in Undrawn Sky.wav
Peak level 64.2 %
Track quality 100.0 %
Test CRC 54AF4768
Copy CRC 54AF4768
Track not present in AccurateRip database
Copy OK
Track 4
Filename C:\ru up\Crispell - Works\CD 1\04 - Song for Abdullah.wav
Peak level 64.1 %
Track quality 100.0 %
Test CRC 10F11DC7
Copy CRC 10F11DC7
Track not present in AccurateRip database
Copy OK
Track 5
Filename C:\ru up\Crispell - Works\CD 1\05 - Sadness.wav
Peak level 63.7 %
Track quality 100.0 %
Test CRC D86501AC
Copy CRC D86501AC
Track not present in AccurateRip database
Copy OK
Track 6
Filename C:\ru up\Crispell - Works\CD 1\06 - Archaic Visions, Part II.wav
Peak level 52.9 %
Track quality 100.0 %
Test CRC FA3FD5CB
Copy CRC FA3FD5CB
Track not present in AccurateRip database
Copy OK
Track 7
Filename C:\ru up\Crispell - Works\CD 1\07 - Element Air...Leap.wav
Peak level 47.0 %
Track quality 100.0 %
Test CRC 5AF5CE15
Copy CRC 5AF5CE15
Track not present in AccurateRip database
Copy OK
Track 8
Filename C:\ru up\Crispell - Works\CD 1\08 - Opium Dream Eyes.wav
Peak level 49.7 %
Track quality 100.0 %
Test CRC C2AC50E4
Copy CRC C2AC50E4
Track not present in AccurateRip database
Copy OK
Track 9
Filename C:\ru up\Crispell - Works\CD 1\09 - Minstrels.wav
Peak level 86.6 %
Track quality 100.0 %
Test CRC 38ED28CE
Copy CRC 38ED28CE
Track not present in AccurateRip database
Copy OK
None of the tracks are present in the AccurateRip database
No errors occurred
End of status report
 
CD 2
Exact Audio Copy V0.99 prebeta 5 from 4. May 2009
EAC extraction logfile from 19. August 2010, 20:51
Marilyn Crispell / Selected Works 1983-1986 Disc 2
Used drive : HL-DT-STDVD-ROM GDR8162B Adapter: 1 ID: 1
Read mode : Secure
Utilize accurate stream : Yes
Defeat audio cache : Yes
Make use of C2 pointers : No
Read offset correction : 102
Overread into Lead-In and Lead-Out : Yes
Fill up missing offset samples with silence : Yes
Delete leading and trailing silent blocks : No
Null samples used in CRC calculations : Yes
Used interface : Installed external ASPI interface
Gap handling : Appended to previous track
Used output format : User Defined Encoder
Selected bitrate : 768 kBit/s
Quality : High
Add ID3 tag : No
Command line compressor : C:\Program Files\FLAC\flac.exe
Additional command line options : -V -8 -T "ARTIST=%a" -T "TITLE=%t" -T "ALBUM=%g" -T "TRACKNUMBER=%n" -T "GENRE=%m" %s
TOC of the extracted CD
Track | Start | Length | Start sector | End sector
---------------------------------------------------------
1 | 0:00.00 | 6:30.66 | 0 | 29315
2 | 6:30.66 | 3:35.46 | 29316 | 45486
3 | 10:06.37 | 4:53.45 | 45487 | 67506
4 | 15:00.07 | 8:33.61 | 67507 | 106042
5 | 23:33.68 | 38:02.53 | 106043 | 277245
Track 1
Filename C:\ru up\Crispell - Works\CD 2\01 - On and off the Beaten Track.wav
Pre-gap length 0:00:02.00
Peak level 80.1 %
Track quality 100.0 %
Test CRC 8017970F
Copy CRC 8017970F
Track not present in AccurateRip database
Copy OK
Track 2
Filename C:\ru up\Crispell - Works\CD 2\02 - Song for Jeanne Lee.wav
Peak level 29.1 %
Track quality 100.0 %
Test CRC DEBB1D6F
Copy CRC DEBB1D6F
Track not present in AccurateRip database
Copy OK
Track 3
Filename C:\ru up\Crispell - Works\CD 2\03 - And Your Ivory Voice Sings (for Cecil Taylor).wav
Peak level 61.9 %
Track quality 100.0 %
Test CRC F6C4C8C3
Copy CRC F6C4C8C3
Track not present in AccurateRip database
Copy OK
Track 4
Filename C:\ru up\Crispell - Works\CD 2\04 - After the Rain.wav
Peak level 58.0 %
Track quality 100.0 %
Test CRC C3EFB475
Copy CRC C3EFB475
Track not present in AccurateRip database
Copy OK
Track 5
Filename C:\ru up\Crispell - Works\CD 2\05 - Quartet Improvisations, Paris 1986.wav
Peak level 81.2 %
Track quality 100.0 %
Test CRC 6CBD25FB
Copy CRC 6CBD25FB
Track not present in AccurateRip database
Copy OK
None of the tracks are present in the AccurateRip database
No errors occurred
End of status report
 
cue

 
CD 1
REM GENRE Jazz
REM DATE 2001
REM DISCID 6D100709
REM COMMENT "ExactAudioCopy v0.99pb5"
CATALOG 0000000000000
PERFORMER "Marilyn Crispell"
TITLE "Selected Works 1983-1986 Disc 1"
FILE "01 - Archaic Visions, Part I.wav" WAVE
TRACK 01 AUDIO
TITLE "Archaic Visions, Part I"
PERFORMER "Marilyn Crispell"
FLAGS DCP
INDEX 01 00:00:00
FILE "02 - Love.wav" WAVE
TRACK 02 AUDIO
TITLE "Love"
PERFORMER "Marilyn Crispell"
FLAGS DCP
INDEX 01 00:00:00
FILE "03 - Rhythms Hung in Undrawn Sky.wav" WAVE
TRACK 03 AUDIO
TITLE "Rhythms Hung in Undrawn Sky"
PERFORMER "Marilyn Crispell"
FLAGS DCP
INDEX 01 00:00:00
FILE "04 - Song for Abdullah.wav" WAVE
TRACK 04 AUDIO
TITLE "Song for Abdullah"
PERFORMER "Marilyn Crispell"
FLAGS DCP
INDEX 01 00:00:00
FILE "05 - Sadness.wav" WAVE
TRACK 05 AUDIO
TITLE "Sadness"
PERFORMER "Marilyn Crispell"
FLAGS DCP
INDEX 01 00:00:00
FILE "06 - Archaic Visions, Part II.wav" WAVE
TRACK 06 AUDIO
TITLE "Archaic Visions, Part II"
PERFORMER "Marilyn Crispell"
FLAGS DCP
INDEX 01 00:00:00
FILE "07 - Element Air...Leap.wav" WAVE
TRACK 07 AUDIO
TITLE "Element Air...Leap"
PERFORMER "Marilyn Crispell"
FLAGS DCP
INDEX 01 00:00:00
FILE "08 - Opium Dream Eyes.wav" WAVE
TRACK 08 AUDIO
TITLE "Opium Dream Eyes"
PERFORMER "Marilyn Crispell"
FLAGS DCP
INDEX 01 00:00:00
FILE "09 - Minstrels.wav" WAVE
TRACK 09 AUDIO
TITLE "Minstrels"
PERFORMER "Marilyn Crispell"
FLAGS DCP
INDEX 01 00:00:00
 
CD 2
REM GENRE Jazz
REM DATE 2001
REM DISCID 340E7005
REM COMMENT "ExactAudioCopy v0.99pb5"
CATALOG 0000000000000
PERFORMER "Marilyn Crispell"
TITLE "Selected Works 1983-1986 Disc 2"
FILE "01 - On and off the Beaten Track.wav" WAVE
TRACK 01 AUDIO
TITLE "On and off the Beaten Track"
PERFORMER "Marilyn Crispell"
FLAGS DCP
INDEX 01 00:00:00
FILE "02 - Song for Jeanne Lee.wav" WAVE
TRACK 02 AUDIO
TITLE "Song for Jeanne Lee"
PERFORMER "Marilyn Crispell"
FLAGS DCP
INDEX 01 00:00:00
FILE "03 - And Your Ivory Voice Sings (for Cecil Taylor).wav" WAVE
TRACK 03 AUDIO
TITLE "And Your Ivory Voice Sings (for Cecil Taylor)"
PERFORMER "Marilyn Crispell"
FLAGS DCP
INDEX 01 00:00:00
FILE "04 - After the Rain.wav" WAVE
TRACK 04 AUDIO
TITLE "After the Rain"
PERFORMER "Marilyn Crispell"
FLAGS DCP
INDEX 01 00:00:00
FILE "05 - Quartet Improvisations, Paris 1986.wav" WAVE
TRACK 05 AUDIO
TITLE "Quartet Improvisations, Paris 1986"
PERFORMER "Marilyn Crispell"
FLAGS DCP
INDEX 01 00:00:00
 
Biography
Born: March 30, 1947
Marilyn Crispell is a graduate of the New England Conservatory of Music where she studied classical piano and composition, and has been a resident of Woodstock, New York since 1977 when she came to study and teach at the Creative Music Studio. She discovered jazz through the music of John Coltrane, Cecil Taylor and other contemporary jazz players and composers. For ten years she was a member of the Anthony Braxton Quartet and the Reggie Workman Ensemble and has been a member of the Barry Guy New Orchestra and guest with his London Jazz Composers Orchestra, as well as a member of the Henry Grimes Trio, Quartet Noir (with Urs Leimgruber, Fritz Hauser and Joelle Leandre), and Anders Jormin's Bortom Quintet. In 2005 she performed and recorded with the NOW Orchestra in Vancouver, Canada and in 2006 she will be co-director of the Vancouver Creative Music Institute and a faculty member at the Banff Centre International Workshop in Jazz.
Besides working as a soloist and leader of her own groups, Crispell has performed and recorded extensively with well-known players on the American and international jazz scene. She's also performed and recorded music by contemporary composers Robert Cogan, Pozzi Escot, John Cage, Pauline Oliveros, Manfred Niehaus and Anthony Davis (including four performances of his opera “X” with the New York City Opera).
In addition to playing, she has taught improvisation workshops and given lecture/demonstrations at universities and art centers in the U.S., Europe, Canada and New Zealand, and has collaborated with videographers, filmmakers, dancers and poets.
Crispell has been the recipient of three New York Foundation for the Arts fellowship grants (1988-1989, 1994-1995 and 2006-2007), a Mary Flagler Cary Charitable Trust composition commission (1988-1989), and a Guggenheim Fellowship (2005-2006). In 1996 she was given an Outstanding Alumni Award by the New England Conservatory, and in 2004, was cited as being one of their 100 most outstanding alumni of the past 100 years.
 
Album notes
The two-CD set Selected Works 1983-1986: Solo, Duo, Quartet is a reissue of three of Marilyn Crispell's records from the 1980s. Rhythms Hung in Undrawn Sky, a studio recording from May 1983, showcases the pianist solo; And Your Ivory Voice Sings comes from a 1985 session with drummer Doug James; finally, Quartet Improvisations, Paris 1986 also features bassist Marcio Mattos, violinist Didier Petit, and drummer Yoval Mincemacher. Therefore, this set offers a comprehensive look at the pianist's work during that period. She was still very much influenced by her mentor Cecil Taylor, although there was a feminine delicateness to her playing that made her unique. The solo material runs into frequent veins of jazz references, along with pockets of romanticism. The session with James is more playful ("On and Off the Beaten Track"), and contains a piece dedicated to Taylor ("And Your Ivory Voice Sings") along with a profound rendition of John Coltrane's "After the Rain." The 38-minute "Quartet Improvisations, Paris 1986" contains the freer moments of the set. Crispell had a tendency in those days to lose a bit of her distinctive personality in group settings, but the piece remains an interesting encounter, very powerful thanks mostly to Mattos, even though the fade-out at the end can be quite frustrating. Since all three LPs were long out of print, this two-CD set is a must-have for fans. ~ François Couture
Any questions -> support@pro-jazz.com. По всем вопросам пишите -> support@pro-jazz.com
02:29
189
Нет комментариев. Ваш будет первым!