Вы используете незарегистрированную версию компонента "Вкладки"!

Поиск

(Free Jazz, Free Improvisation) FME (Free Music Ensemble) (Ken Vandermark, Nate McBride, Paal Nilssen-Love) - Montage - 2005, FLAC (tracks+.cue), lossless

Треклист:
FME (Free Music Ensemble) (Ken Vandermark, Nate McBride, Paal Nilssen-Love)
Жанр: Free Jazz, Free Improvisation
Год выпуска диска: 2005
Производитель диска: Okka Disk OD 12071
Аудио кодек: FLAC
Тип рипа: tracks+.cue
Битрейт аудио: lossless
Источник: what.cd (weareborg)
Продолжительность: cd1 70:49; cd2 77:16;
Треклист:
CD 1: Boston
Set One
1) a. On A Wire (for Sergio Leone)
b. Montage (for Sergei Eisenstein)
c. False Rabbit (for Federico Fellini)
Time [19:34]
2) a. But Only Almost (for Takeshi Kitano)
b. Looking At Dutch Stairs (for Buster Keaton)
Time [17:17]
Set Two
3) a. Drift (for John Cassavetes)
b. Decoder (for Stanley Kubrick)
Time [14:56]
4) a. New Reference (for Peter Greenaway)
b. Ottica (for Akira Kurosawa)
c. Exit The Republic (for Orson Welles)
Time [19:01]
CD 2: Montreal
Set One
1) a. Exit The Republic (for Orson Welles)
b. Drift (for John Cassavetes)
c. Ottica (for Akira Kurosawa)
d. New Reference (for Peter Greenaway)
e. Decoder (for Stanley Kubrick).
Time [35:03]
Set Two
2) a. But Only Almost (for Takeshi Kitano)
b. False Rabbit (for Federico Fellini)
c. Montage (for Sergei Eisenstein)
Time [26:05]
3) a. On A Wire (for Sergio Leone)
b. Looking At Dutch Stairs (for Buster Keaton)
Time [16:06]
Paal Nilssen-Love — drums
Nate McBride — bass
Ken Vandermark — reeds
Design and images: Jon Resh / UNDAUNTED
All compositions by Ken Vandermark (ASCAP)
Recording Info
CD 1 recorded in concert at Artists At Large in Hyde Park, Massachusetts by Amos Scattergood on September 22nd, 2005.
CD 2 recorded in concert at the Suoni Per Il Popolo Festival in Montreal, Quebec by Amos Scattergood on September 23rd, 2005.
Mixed by Scattergood, Vandermark, and McBride.
Mastered by Bob Weston.
 
CUE cd1
REM GENRE Jazz
REM DATE 2006
REM DISCID 26109904
REM COMMENT "ExactAudioCopy v0.95b4"
PERFORMER "Free Music Ensemble"
TITLE "Montage (CD 1 Boston)"
FILE "01 - Set One - On A Wire, Montage, False Rabbit.wav" WAVE
TRACK 01 AUDIO
TITLE "Set One - On A Wire, Montage, False Rabbit"
PERFORMER "Free Music Ensemble"
INDEX 01 00:00:00
TRACK 02 AUDIO
TITLE "Set One - But Only Almost, Looking At Ducth Stairs"
PERFORMER "Free Music Ensemble"
INDEX 00 19:32:61
FILE "02 - Set One - But Only Almost, Looking At Ducth Stairs.wav" WAVE
INDEX 01 00:00:00
TRACK 03 AUDIO
TITLE "Set Two - Drift, Decoder"
PERFORMER "Free Music Ensemble"
INDEX 00 17:14:32
FILE "03 - Set Two - Drift, Decoder.wav" WAVE
INDEX 01 00:00:00
TRACK 04 AUDIO
TITLE "Set Two - New Reference, Ottica, Exit The Republic"
PERFORMER "Free Music Ensemble"
INDEX 00 14:55:37
FILE "04 - Set Two - New Reference, Ottica, Exit The Republic.wav" WAVE
INDEX 01 00:00:00
 
CUE cd2
REM GENRE Jazz
REM DATE 2006
REM DISCID 1B121B03
REM COMMENT "ExactAudioCopy v0.95b4"
PERFORMER "Free Music Ensemble"
TITLE "Montage (CD 2 Montreal)"
FILE "01 - Set One - Exit The Republic, Drift, Ottica, New Reference, Decoder.wav" WAVE
TRACK 01 AUDIO
TITLE "Set One - Exit The Republic, Drift, Ottica, New Reference, Decoder"
PERFORMER "Free Music Ensemble"
INDEX 01 00:00:00
TRACK 02 AUDIO
TITLE "Set Two - But Only Almost, False Rabbit, Montage"
PERFORMER "Free Music Ensemble"
INDEX 00 35:02:40
FILE "02 - Set Two - But Only Almost, False Rabbit, Montage.wav" WAVE
INDEX 01 00:00:00
FILE "03 - Set Two - On A Wire, Looking At Ducth Stairs.wav" WAVE
TRACK 03 AUDIO
TITLE "Set Two - On A Wire, Looking At Ducth Stairs"
PERFORMER "Free Music Ensemble"
INDEX 01 00:00:00
 
EAC extraction logfile cd1
EAC extraction logfile from 13. November 2006, 16:55 for CD
Free Music Ensemble / Montage (CD 1 Boston)
Used drive : CDWRITERIDE5232 Adapter: 1 ID: 1
Read mode : Secure with NO C2, accurate stream, disable cache
Read offset correction : 97
Overread into Lead-In and Lead-Out : No
Used output format : C:\Program Files\FLAC\flac.exe (User Defined Encoder)
256 kBit/s
Additional command line options : -V -8 -T "artist=%a" -T "title=%t" -T "album=%g" -T "date=%y" -T "tracknumber=%n" -T "genre=%m" %s
Other options :
Fill up missing offset samples with silence : Yes
Delete leading and trailing silent blocks : No
Native Win32 interface for Win NT & 2000
Track 1
Filename C:\SCSI_CARD\Temp\Free Music Ensemble - Montage (FLAC)\Disc 1 - Boston\01 - Set One - On A Wire, Montage, False Rabbit.wav
Pre-gap length 0:00:02.00
Peak level 100.0 %
Track quality 100.0 %
Copy CRC 1588E09F
Copy OK
Track 2
Filename C:\SCSI_CARD\Temp\Free Music Ensemble - Montage (FLAC)\Disc 1 - Boston\02 - Set One - But Only Almost, Looking At Ducth Stairs.wav
Pre-gap length 0:00:01.42
Peak level 100.0 %
Track quality 99.9 %
Copy CRC 93B9BBE1
Copy OK
Track 3
Filename C:\SCSI_CARD\Temp\Free Music Ensemble - Montage (FLAC)\Disc 1 - Boston\03 - Set Two - Drift, Decoder.wav
Pre-gap length 0:00:02.46
Peak level 100.0 %
Track quality 100.0 %
Copy CRC 38707343
Copy OK
Track 4
Filename C:\SCSI_CARD\Temp\Free Music Ensemble - Montage (FLAC)\Disc 1 - Boston\04 - Set Two - New Reference, Ottica, Exit The Republic.wav
Pre-gap length 0:00:01.02
Peak level 100.0 %
Track quality 100.0 %
Copy CRC DECB9263
Copy OK
No errors occured
End of status report
 
EAC extraction logfile cd2
EAC extraction logfile from 13. November 2006, 18:04 for CD
Free Music Ensemble / Montage (CD 2 Montreal)
Used drive : CDWRITERIDE5232 Adapter: 1 ID: 1
Read mode : Secure with NO C2, accurate stream, disable cache
Read offset correction : 97
Overread into Lead-In and Lead-Out : No
Used output format : C:\Program Files\FLAC\flac.exe (User Defined Encoder)
256 kBit/s
Additional command line options : -V -8 -T "artist=%a" -T "title=%t" -T "album=%g" -T "date=%y" -T "tracknumber=%n" -T "genre=%m" %s
Other options :
Fill up missing offset samples with silence : Yes
Delete leading and trailing silent blocks : No
Native Win32 interface for Win NT & 2000
Track 1
Filename C:\SCSI_CARD\Temp\Free Music Ensemble - Montage (FLAC)\Disc 2 - Montreal\01 - Set One - Exit The Republic, Drift, Ottica, New Reference, Decoder.wav
Pre-gap length 0:00:02.00
Peak level 100.0 %
Track quality 99.9 %
Copy CRC 0CF7BE70
Copy OK
Track 2
Filename C:\SCSI_CARD\Temp\Free Music Ensemble - Montage (FLAC)\Disc 2 - Montreal\02 - Set Two - But Only Almost, False Rabbit, Montage.wav
Pre-gap length 0:00:01.05
Peak level 100.0 %
Track quality 100.0 %
Copy CRC 957C337E
Copy OK
Track 3
Filename C:\SCSI_CARD\Temp\Free Music Ensemble - Montage (FLAC)\Disc 2 - Montreal\03 - Set Two - On A Wire, Looking At Ducth Stairs.wav
Peak level 100.0 %
Track quality 100.0 %
Copy CRC F9E61AA3
Copy OK
No errors occured
End of status report
Any questions -> support@pro-jazz.com. По всем вопросам пишите -> support@pro-jazz.com
02:31
176
Нет комментариев. Ваш будет первым!