Вы используете незарегистрированную версию компонента "Вкладки"!

Поиск

(Free Jazz, Avant-Garde) Evan Parker with Ghost-In-The-Machine - Ghost-In-The-Machine feat. Evan Parker - 1996, FLAC (image+.cue), lossless

(Free Jazz, Avant-Garde) Evan Parker with Ghost-In-The-Machine - Ghost-In-The-Machine feat. Evan Parker - 1996, FLAC (image+.cue), lossless
Треклист:
Evan Parker and Ghost-In-The-Machine - Ghost-In-The-Machine feat. Evan Parker
Жанр: Free Jazz, Avant-Garde
Год выпуска диска: 1996
Производитель диска: Leo Rec
Аудио кодек: FLAC
Тип рипа: image+.cue
Битрейт аудио: lossless
Продолжительность: 69-37
Треклист:
1. Beginnings
2. Highup
3. Hipawl
4. Throy
5. Intertuba/Extremii
6. Radio Djibouti
7. Tivoli After Dark
8. Free Techno
9. The Base Piano
10. Birds in Cages
11. Train
Доп. информация:
Christer Irgens-Moller: piano, keyboards, voice
Peter Friis Nielsen: electric bass
Pere Oliver Jorgens: percussion, drums
Martin Klapper: amplified objects, dictaphone, tapes, toys
Evan Parker: soprano and tenor saxophones.
Recorded in September 1993 in Copenhagen
Released in 1996 by Leo Records.
 
скрытый текст
Exact Audio Copy V0.99 prebeta 5 from 4. May 2009
EAC extraction logfile from 21. August 2010, 15:43
Chost-In-The-Machine feat. Evan Parker / Chost-In-The-Machine feat. Evan Parker
Used drive : Optiarc DVD RW AD-5200S Adapter: 2 ID: 1
Read mode : Secure
Utilize accurate stream : Yes
Defeat audio cache : Yes
Make use of C2 pointers : No
Read offset correction : 48
Overread into Lead-In and Lead-Out : No
Fill up missing offset samples with silence : Yes
Delete leading and trailing silent blocks : No
Null samples used in CRC calculations : Yes
Used interface : Native Win32 interface for Win NT & 2000
Used output format : Internal WAV Routines
Sample format : 44.100 Hz; 16 Bit; Stereo
Use compression offset : 0
TOC of the extracted CD
Track | Start | Length | Start sector | End sector
---------------------------------------------------------
1 | 0:00.00 | 4:32.22 | 0 | 20421
2 | 4:32.22 | 5:43.13 | 20422 | 46159
3 | 10:15.35 | 5:02.72 | 46160 | 68881
4 | 15:18.32 | 3:17.65 | 68882 | 83721
5 | 18:36.22 | 13:47.43 | 83722 | 145789
6 | 32:23.65 | 4:58.70 | 145790 | 168209
7 | 37:22.60 | 7:46.15 | 168210 | 203174
8 | 45:09.00 | 2:57.02 | 203175 | 216451
9 | 48:06.02 | 3:21.08 | 216452 | 231534
10 | 51:27.10 | 5:51.05 | 231535 | 257864
11 | 57:18.15 | 12:23.15 | 257865 | 313604
Range status and errors
Selected range
Filename F:\FOS\MY_MUSIC\Parker Evan\Chost-In-The-Machine feat. Evan Parker - Chost-In-The-Machine feat. Evan Parker\Chost-In-The-Machine feat. Evan Parker - Chost-In-The-Machine feat. Evan Parker.wav
Peak level 97.7 %
Range quality 100.0 %
Copy CRC 6A977317
Copy OK
No errors occurred
AccurateRip summary
Track 1 accurately ripped (confidence 1) [7D713218]
Track 2 accurately ripped (confidence 1) [7C7A0ECB]
Track 3 accurately ripped (confidence 1) [F56CBF87]
Track 4 accurately ripped (confidence 1) [581A5F17]
Track 5 accurately ripped (confidence 1) [CB3AF87D]
Track 6 accurately ripped (confidence 1) [F81D1655]
Track 7 accurately ripped (confidence 1) [9B350A20]
Track 8 accurately ripped (confidence 1) [4EA2D97A]
Track 9 accurately ripped (confidence 1) [5163D7FE]
Track 10 accurately ripped (confidence 1) [AD779215]
Track 11 accurately ripped (confidence 1) [87089F37]
All tracks accurately ripped
End of status report
------------------------------------------------------------
Exact Audio Copy V0.99 prebeta 5 from 4. May 2009
EAC extraction logfile from 21. August 2010, 16:30
Chost-In-The-Machine feat. Evan Parker / Chost-In-The-Machine feat. Evan Parker
Used drive : Optiarc DVD RW AD-5200S Adapter: 2 ID: 1
Read mode : Secure
Utilize accurate stream : Yes
Defeat audio cache : Yes
Make use of C2 pointers : No
Read offset correction : 48
Overread into Lead-In and Lead-Out : No
Fill up missing offset samples with silence : Yes
Delete leading and trailing silent blocks : No
Null samples used in CRC calculations : Yes
Used interface : Native Win32 interface for Win NT & 2000
Used output format : User Defined Encoder
Selected bitrate : 768 kBit/s
Quality : High
Add ID3 tag : No
Command line compressor : C:\Program Files\Exact Audio Copy\FLAC\FLAC.EXE
Additional command line options : -6 -V -T "ARTIST=%a" -T "TITLE=%t" -T "ALBUM=%g" -T "DATE=%y" -T "TRACKNUMBER=%n" -T "GENRE=%m" -T "COMMENT=%e" %s -o %d
Use compression offset : 0
TOC of the extracted CD
Track | Start | Length | Start sector | End sector
---------------------------------------------------------
1 | 0:00.00 | 4:32.22 | 0 | 20421
2 | 4:32.22 | 5:43.13 | 20422 | 46159
3 | 10:15.35 | 5:02.72 | 46160 | 68881
4 | 15:18.32 | 3:17.65 | 68882 | 83721
5 | 18:36.22 | 13:47.43 | 83722 | 145789
6 | 32:23.65 | 4:58.70 | 145790 | 168209
7 | 37:22.60 | 7:46.15 | 168210 | 203174
8 | 45:09.00 | 2:57.02 | 203175 | 216451
9 | 48:06.02 | 3:21.08 | 216452 | 231534
10 | 51:27.10 | 5:51.05 | 231535 | 257864
11 | 57:18.15 | 12:23.15 | 257865 | 313604
Range status and errors
Selected range
Filename F:\FOS\MY_MUSIC\Parker Evan\Chost-In-The-Machine feat. Evan Parker - Chost-In-The-Machine feat. Evan Parker\Chost-In-The-Machine feat. Evan Parker - Chost-In-The-Machine feat. Evan Parker.wav
Peak level 97.7 %
Range quality 100.0 %
Test CRC 6A977317
Copy CRC 6A977317
Copy OK
No errors occurred
AccurateRip summary
Track 1 accurately ripped (confidence 1) [7D713218]
Track 2 accurately ripped (confidence 1) [7C7A0ECB]
Track 3 accurately ripped (confidence 1) [F56CBF87]
Track 4 accurately ripped (confidence 1) [581A5F17]
Track 5 accurately ripped (confidence 1) [CB3AF87D]
Track 6 accurately ripped (confidence 1) [F81D1655]
Track 7 accurately ripped (confidence 1) [9B350A20]
Track 8 accurately ripped (confidence 1) [4EA2D97A]
Track 9 accurately ripped (confidence 1) [5163D7FE]
Track 10 accurately ripped (confidence 1) [AD779215]
Track 11 accurately ripped (confidence 1) [87089F37]
All tracks accurately ripped
End of status report
Собственный рип с оригинального диска
Any questions -> support@pro-jazz.com. По всем вопросам пишите -> support@pro-jazz.com
02:31
151
Нет комментариев. Ваш будет первым!