Поиск

(Jazz) Evan Parker and Transatlantic Art Ensemble - Boustrophedon (2008) [FLAC] - 2008, FLAC (image + .cue), lossless

(Jazz) Evan Parker and Transatlantic Art Ensemble - Boustrophedon (2008) [FLAC] - 2008, FLAC (image + .cue), lossless
Треклист:
Evan Parker and Transatlantic Art Ensemble - Boustrophedon (2008) [FLAC]
Жанр: Jazz
Год выпуска: 2008
Формат: FLAC (image + .cue)
Битрейт аудио: lossless
Продолжительность: 00:50:46
Трэклист:
1.Overture Parker 1:21
2. Furrow 1 Parker 8:09
3. Furrow 2 Parker 5:46
4 .Furrow 3 Parker 11:07
5 .Furrow 4 Parker 5:21
6 .Furrow 5 Parker 8:20
7. Furrow 6 Parker 12:52
8 .Finale Parker 6:19
Evan Parker (SS)
Roscoe Mitchell (as & ss)
Anders Svanoe (As)
John Rangecroft (cl)
Neil Metcalfe (fl)
Corey Wilkes ((tr & flh)
Nils Bultmann ( viola)
Philipp Wachsmann (Violin)
Marcio mattos (Cello)
Graig Taborn (piano)
Jaribu Shahid (double-bass)
Barry Guy (double- bass)
Tani Tabbal (drum & percussion)
Paul Lytton (drums & percussion)
Evan Parker/Transatlantic Art Ensemble
Boustrophedon (In Six Furrows)
Release Date
Mar 24, 2008
Recording Date
Sep 2004
Доп. информация:
 
Отчёт EAC
EAC extraction logfile from 9. May 2008, 0:11 for CD
Evan Parker / Boustrophedon
Used drive : HL-DT-STDVDRAM GSA-H10N Adapter: 0 ID: 0
Read mode : Secure with NO C2, accurate stream, disable cache
Read offset correction : 667
Overread into Lead-In and Lead-Out : No
Used output format : C:\Program Files\FLAC\flac.exe (User Defined Encoder)
128 kBit/s
Additional command line options : -8 -V -T "ARTIST=%a" -T "TITLE=%t" -T "ALBUM=%g" -T "DATE=%y" -T "TRACKNUMBER=%n" -T "GENRE=%m" -T "COMMENT=EAC FLAC -8" %s
Other options :
Fill up missing offset samples with silence : Yes
Delete leading and trailing silent blocks : No
Native Win32 interface for Win NT & 2000
Track 1
Filename D:\Torrents\Evan Parker and Transatlantic Art Ensemble - Boustrophedon (2008) [FLAC]\01 - Overture.wav
Pre-gap length 0:00:02.00
Peak level 84.0 %
Track quality 100.0 %
Test CRC 03BED39B
Copy CRC 03BED39B
Copy OK
Track 2
Filename D:\Torrents\Evan Parker and Transatlantic Art Ensemble - Boustrophedon (2008) [FLAC]\02 - Furrow 1.wav
Peak level 96.6 %
Track quality 100.0 %
Test CRC BAA0EC55
Copy CRC BAA0EC55
Copy OK
Track 3
Filename D:\Torrents\Evan Parker and Transatlantic Art Ensemble - Boustrophedon (2008) [FLAC]\03 - Furrow 2.wav
Peak level 80.8 %
Track quality 100.0 %
Test CRC 8D9A93E9
Copy CRC 8D9A93E9
Copy OK
Track 4
Filename D:\Torrents\Evan Parker and Transatlantic Art Ensemble - Boustrophedon (2008) [FLAC]\04 - Furrow 3.wav
Peak level 96.6 %
Track quality 99.9 %
Test CRC B4C4C09D
Copy CRC B4C4C09D
Copy OK
Track 5
Filename D:\Torrents\Evan Parker and Transatlantic Art Ensemble - Boustrophedon (2008) [FLAC]\05 - Furrow 4.wav
Peak level 96.6 %
Track quality 99.9 %
Test CRC 2B8C8451
Copy CRC 2B8C8451
Copy OK
Track 6
Filename D:\Torrents\Evan Parker and Transatlantic Art Ensemble - Boustrophedon (2008) [FLAC]\06 - Furrow 5.wav
Peak level 96.6 %
Track quality 100.0 %
Test CRC 077C6E11
Copy CRC 077C6E11
Copy OK
Track 7
Filename D:\Torrents\Evan Parker and Transatlantic Art Ensemble - Boustrophedon (2008) [FLAC]\07 - Furrow 6.wav
Peak level 96.6 %
Track quality 100.0 %
Test CRC 08726138
Copy CRC 08726138
Copy OK
Track 8
Filename D:\Torrents\Evan Parker and Transatlantic Art Ensemble - Boustrophedon (2008) [FLAC]\08 - Final.wav
Peak level 96.6 %
Track quality 100.0 %
Test CRC 9D81F285
Copy CRC 9D81F285
Copy OK
No errors occured
End of status report
Релиз группы:
Приватный:
Нет (DHT включён)
Размер:
296.93 Мб (311,350,624 байт) » файлов: 13
Участники:
0 раздают, 0 качают (0 участников всего)
Внешние участники:
1 раздают, 0 качают (1 участников всего) [ Обновить ]
Есть вопросы - пишите личное сообщение пользователю M0p94ok.
00:59
54
Нет комментариев. Ваш будет первым!