Поиск

(modern free-jazz) Atomic - Feet Music - 2001, FLAC (image + .cue), lossless

(modern free-jazz) Atomic - Feet Music - 2001, FLAC (image + .cue), lossless
Треклист:
Atomic - Feet Music
Страна: Norway
Жанр: modern free-jazz
Год выпуска: 2001
Формат: FLAC (image + .cue)
Битрейт аудио: lossless
Продолжительность: 54:44
Трэклист:
1 Nara grensen 5:17
2 Longing for Martin 5:59
3 Do it 5:01
4 Den flyktige magneten 5:16
5 Psalm 4:32
6 El Coto 6:08
7 Prayer 6:41
8 Fifth circle 6:28
9 Krilons resa 9:22
Доп. информация: Frederik Ljungkvist - tenor & soprano saxophones
Magnus Broo - trumpet
Havard Wiik - piano
Ingebrigt Haker Flaten - bass
Paal Nilssen-Love - drums
 
Отчет EAC
Exact Audio Copy V0.99 prebeta 4 from 23. January 2008
Отчёт EAC об извлечении, выполненном 9. мая 2008, 6:56
Atomic / Feet Music
Дисковод: Optiarc DVD RW AD-7170A Adapter: 0 ID: 1
Режим чтения : Достоверность
Использование точного потока : Да
Отключение кэша аудио : Да
Использование указателей C2 : Нет
Коррекция смещения при чтении : 48
Способность читать области Lead-in и Lead-out : Нет
Заполнение пропущенных сэмплов тишиной : Да
Удаление блоков с тишиной в начале и конце : Нет
При вычислениях CRC использовались нулевые сэмплы : Нет
Интерфейс : Встроенный Win32-интерфейс для Win NT/2000
Выходной формат : Пользовательский кодировщик
Выбранный битрейт : 768 kBit/s
Качество : Высокий
Добавление ID3-тэга : Нет
Утилита сжатия : C:\Program Files\Exact Audio Copy\FLAC\FLAC.EXE
Дополнительные параметры : -6 -V -T "ARTIST=%a" -T "TITLE=%t" -T "ALBUM=%g" -T "DATE=%y" -T "TRACKNUMBER=%n" -T "GENRE=%m" -T "COMMENT=%e" %s -o %d
TOC извлечённого CD
Трек | Старт | Длительность | Начальный сектор | Конечный сектор
---------------------------------------------------------------------
1 | 0:00.00 | 5:16.62 | 0 | 23761
2 | 5:16.62 | 5:59.39 | 23762 | 50725
3 | 11:16.26 | 5:01.08 | 50726 | 73308
4 | 16:17.34 | 5:16.18 | 73309 | 97026
5 | 21:33.52 | 4:32.38 | 97027 | 117464
6 | 26:06.15 | 6:07.56 | 117465 | 145045
7 | 32:13.71 | 6:40.58 | 145046 | 175103
8 | 38:54.54 | 6:27.51 | 175104 | 204179
9 | 45:22.30 | 9:21.61 | 204180 | 246315
Характеристики диапазона извлечения и сообщения об ошибках
Выбранный диапазон
Имя файла C:\Music\Atomic - Feet Music.wav
Пиковый уровень 99.1 %
Качество диапазона 99.9 %
CRC копии 28BFF931
Копирование... OK
Ошибок не произошло
AccurateRip: сводка
Трек 1 точное извлечение (доверие 1) [D242FD67]
Трек 2 точное извлечение (доверие 1) [CB0FC351]
Трек 3 точное извлечение (доверие 1) [F8471141]
Трек 4 точное извлечение (доверие 1) [ADFB03A3]
Трек 5 точное извлечение (доверие 1) [73D54336]
Трек 6 точное извлечение (доверие 1) [EF42365F]
Трек 7 точное извлечение (доверие 1) [084B9362]
Трек 8 точное извлечение (доверие 1) [A053045B]
Трек 9 точность не определена (достоверность 1) [515A2B0D], AccurateRip вернул [FE0329FE]
8 трек(и) скопированы точно
1 трек(и) не удалось проверить на точность
Некоторые треки не прошли проверку на точность
Конец отчёта
Приватный:
Нет (DHT включён)
Размер:
365.58 Мб (383,338,616 байт) » файлов: 3
Участники:
0 раздают, 0 качают (0 участников всего)
Внешние участники:
3 раздают, 1 качают (4 участников всего) [ Обновить ]
Есть вопросы - пишите личное сообщение пользователю M0p94ok.
00:58
89
Нет комментариев. Ваш будет первым!