Поиск

(Jazz / ECM) Roscoe Mitchell - Composition Improvisation Nos.1, 2 & 3 (ECM 1872) - 2007, FLAC (image + .cue), lossless

(Jazz / ECM) Roscoe Mitchell - Composition Improvisation Nos.1, 2 & 3 (ECM 1872) - 2007, FLAC (image + .cue), lossless
Треклист:
Roscoe Mitchell - Composition Improvisation Nos.1, 2 & 3 (ECM 1872)
Страна: USA / UK
Жанр: Jazz / ECM
Год выпуска: 2007
Формат: FLAC (image + .cue)
Битрейт аудио: lossless
Продолжительность: 1:19:11
Roscoe Mitchell soprano saxophone
Evan Parker tenor and soprano saxophones
Anders Svanoe alto and baritone saxophones
Corey Wilkes trumpet, flugelhorn
John Rangecroft clarinet
Neil Metcalfe flute
Nils Bultmann viola
Philipp Wachsmann violin
Marcio Mattos cello
Craig Taborn piano
Jaribu Shahid double-bass
Barry Guy double-bass
Tanni Tabbal drums, percussion
Paul Lytton drums, percussion
I
II
III
IV
V
VI
VII
VIII
IX
VIII and IV from Composition/Improvisation 1
I, II, V, VI, VII, IX from Composition/Improvisation 2
III from Composition/Improvisation 3
Recorded September 2004
ECM 1872
 
EAC Report
Exact Audio Copy V0.99 prebeta 4 from 23. January 2008
EAC extraction logfile from 3. May 2008, 14:51
Roscoe Mitchell / Composition / Improvisation Nos.1, 2 & 3
Used drive : TSSTcorpCD/DVDW SH-S182M Adapter: 2 ID: 0
Read mode : Secure
Utilize accurate stream : Yes
Defeat audio cache : Yes
Make use of C2 pointers : No
Read offset correction : 6
Overread into Lead-In and Lead-Out : No
Fill up missing offset samples with silence : Yes
Delete leading and trailing silent blocks : No
Null samples used in CRC calculations : No
Used interface : Installed external ASPI interface
Used output format : User Defined Encoder
Selected bitrate : 1024 kBit/s
Quality : High
Add ID3 tag : No
Command line compressor : C:\Program Files\Exact Audio Copy\FLAC\FLAC.EXE
Additional command line options : -6 -V -T "ARTIST=%a" -T "TITLE=%t" -T "ALBUM=%g" -T "DATE=%y" -T "TRACKNUMBER=%n" -T "GENRE=%m" -T "COMMENT=%e" %s -o %d
TOC of the extracted CD
Track | Start | Length | Start sector | End sector
---------------------------------------------------------
1 | 0:00.00 | 13:36.01 | 0 | 61200
2 | 13:36.01 | 4:07.20 | 61201 | 79745
3 | 17:43.21 | 18:35.03 | 79746 | 163373
4 | 36:18.24 | 5:42.21 | 163374 | 189044
5 | 42:00.45 | 3:54.06 | 189045 | 206600
6 | 45:54.51 | 3:17.22 | 206601 | 221397
7 | 49:11.73 | 9:12.45 | 221398 | 262842
8 | 58:24.43 | 14:48.39 | 262843 | 329481
9 | 73:13.07 | 5:57.36 | 329482 | 356292
Range status and errors
Selected range
Filename F:\z\Roscoe Mitchell - Composition Improvisation Nos.1, 2 & 3.wav
Peak level 96.6 %
Range quality 100.0 %
Copy CRC 6F4CC5E0
Copy OK
No errors occurred
AccurateRip summary
Track 1 not present in database
Track 2 not present in database
Track 3 not present in database
Track 4 not present in database
Track 5 not present in database
Track 6 not present in database
Track 7 not present in database
Track 8 not present in database
Track 9 not present in database
None of the tracks are present in the AccurateRip database
End of status report
Приватный:
Нет (DHT включён)
Размер:
377.54 Мб (395,876,231 байт) » файлов: 5
Участники:
0 раздают, 0 качают (0 участников всего)
Внешние участники:
2 раздают, 1 качают (3 участников всего) [ Обновить ]
Есть вопросы - пишите личное сообщение пользователю M0p94ok.
01:00
69
Нет комментариев. Ваш будет первым!