Поиск

(Jazz) Art Ensemble of Chicago - Coming Home Jamaica - 1998, FLAC (image + .cue), lossless

(Jazz) Art Ensemble of Chicago - Coming Home Jamaica - 1998, FLAC (image + .cue), lossless
Треклист:
Art Ensemble of Chicago - Coming Home Jamaica
Страна: USA
Жанр: Jazz
Год выпуска: 1998
Формат: FLAC (image + .cue)
Битрейт аудио: lossless
Продолжительность: 41:40
Grape Escape
Odwalla Theme
Jamaica Farewell
Mama Wants You
Strawberry Mango
Villa Tiamo
Malachi
Lotta Colada
 
EAC Report
Exact Audio Copy V0.99 prebeta 4 from 23. January 2008
EAC extraction logfile from 16. April 2008, 23:38
Art Ensemble of Chicago / Coming Home Jamaica
Used drive : TSSTcorpCD/DVDW SH-S182M Adapter: 2 ID: 0
Read mode : Secure
Utilize accurate stream : Yes
Defeat audio cache : Yes
Make use of C2 pointers : No
Read offset correction : 6
Overread into Lead-In and Lead-Out : No
Fill up missing offset samples with silence : Yes
Delete leading and trailing silent blocks : No
Null samples used in CRC calculations : No
Used interface : Installed external ASPI interface
Used output format : User Defined Encoder
Selected bitrate : 1024 kBit/s
Quality : High
Add ID3 tag : No
Command line compressor : C:\Program Files\Exact Audio Copy\FLAC\FLAC.EXE
Additional command line options : -6 -V -T "ARTIST=%a" -T "TITLE=%t" -T "ALBUM=%g" -T "DATE=%y" -T "TRACKNUMBER=%n" -T "GENRE=%m" -T "COMMENT=%e" %s -o %d
TOC of the extracted CD
Track | Start | Length | Start sector | End sector
---------------------------------------------------------
1 | 0:00.32 | 3:58.43 | 32 | 17924
2 | 3:59.00 | 5:08.00 | 17925 | 41024
3 | 9:07.00 | 1:56.32 | 41025 | 49756
4 | 11:03.32 | 12:28.23 | 49757 | 105879
5 | 23:31.55 | 3:47.02 | 105880 | 122906
6 | 27:18.57 | 1:47.30 | 122907 | 130961
7 | 29:06.12 | 9:31.43 | 130962 | 173829
8 | 38:37.55 | 3:02.55 | 173830 | 187534
Range status and errors
Selected range
Filename F:\z\Art Ensemble of Chicago - Coming Home Jamaica.wav
Peak level 100.0 %
Range quality 99.9 %
Copy CRC B81939CA
Copy OK
No errors occurred
AccurateRip summary
Track 1 accurately ripped (confidence 1) [710BCA3D]
Track 2 accurately ripped (confidence 1) [49360857]
Track 3 accurately ripped (confidence 1) [9003DB8B]
Track 4 accurately ripped (confidence 1) [B1324742]
Track 5 accurately ripped (confidence 1) [ADE64F8F]
Track 6 accurately ripped (confidence 1) [8E9DCF99]
Track 7 accurately ripped (confidence 1) [D7D50768]
Track 8 accurately ripped (confidence 1) [81BE6009]
All tracks accurately ripped
End of status report
Приватный:
Нет (DHT включён)
Размер:
242.82 Мб (254,616,655 байт) » файлов: 6
Участники:
0 раздают, 1 качают (1 участников всего)
Внешние участники:
3 раздают, 1 качают (4 участников всего) [ Обновить ]
Скорость:
524.58 Кб/c 0/c
Есть вопросы - пишите личное сообщение пользователю M0p94ok.
01:00
57
Нет комментариев. Ваш будет первым!