Поиск

(jazz\ECM) Gianluigi Trovesi Ottetto -Fugase-2003, FLAC (image+.cue)

Треклист:
Gianluigi Trovesi Ottetto =Fugase=
Жанр: jazz
Год выпуска диска: 2003
Производитель диска: ECM
Аудио кодек: FLAC
Тип рипа: image+.cue
Продолжительность: 60:37
Трэклист:
1. As strange as a ballad
2. Sogno d'Orfeo
3-5.African Triptych
6. Canto di lavoro
7. Clumsy dancing of the fat bird
8. Siparietto I
9. Blues and West
10. Siparietto II
11. II Domatore
12. Ramble
13. Siparietto III
14. Fugace
15. Siparietto IV
16. Toto nei Caraibi
Состав:
Gianluigi Trovesi alto saxophone, piccolo, alto clarinets
Beppe Caruso trombone
Massimo Greco trumpet, electronics
Marco Remondini cello, electronics
Roberto Bonati double-bass
Marco Micheli double-bass, electric bass
Fulvio Maras percussion, electronics
Vittorio Marinoni drums
 
EAC log
Exact Audio Copy V0.99 prebeta 4 from 23. January 2008
Отчёт EAC об извлечении, выполненном 23. сентября 2008, 16:49
Ginaluigi TROVESI Ottetto / Fugace (ECM 2003)
Дисковод: HL-DT-STDVDRAM GH20NS10 Adapter: 0 ID: 1
Режим чтения : Достоверность
Использование точного потока : Да
Отключение кэша аудио : Да
Использование указателей C2 : Нет
Коррекция смещения при чтении : 667
Способность читать области Lead-in и Lead-out : Нет
Заполнение пропущенных сэмплов тишиной : Да
Удаление блоков с тишиной в начале и конце : Нет
При вычислениях CRC использовались нулевые сэмплы : Да
Интерфейс : Установленный внешний ASPI-интерфейс
Выходной формат : Внутренние WAV-операции
Формат сэмплов : 44.100 Гц; 16 бит; стерео
TOC извлечённого CD
Трек | Старт | Длительность | Начальный сектор | Конечный сектор
---------------------------------------------------------------------
1 | 0:00.00 | 3:43.30 | 0 | 16754
2 | 3:43.30 | 8:01.47 | 16755 | 52876
3 | 11:45.02 | 5:11.15 | 52877 | 76216
4 | 16:56.17 | 2:46.48 | 76217 | 88714
5 | 19:42.65 | 3:50.22 | 88715 | 105986
6 | 23:33.12 | 4:34.40 | 105987 | 126576
7 | 28:07.52 | 1:41.63 | 126577 | 134214
8 | 29:49.40 | 2:31.45 | 134215 | 145584
9 | 32:21.10 | 5:26.57 | 145585 | 170091
10 | 37:47.67 | 1:02.10 | 170092 | 174751
11 | 38:50.02 | 6:19.48 | 174752 | 203224
12 | 45:09.50 | 5:06.35 | 203225 | 226209
13 | 50:16.10 | 1:24.57 | 226210 | 232566
14 | 51:40.67 | 1:11.60 | 232567 | 237951
15 | 52:52.52 | 1:50.60 | 237952 | 246261
16 | 54:43.37 | 5:51.60 | 246262 | 272646
Характеристики диапазона извлечения и сообщения об ошибках
Выбранный диапазон
Имя файла D:\Музыка\Записи\Новая папка\Ginaluigi TROVESI Ottetto - Fugace (ECM 2003).wav
Пиковый уровень 100.0 %
Качество диапазона 100.0 %
CRC копии FC3C5586
Копирование... OK
Ошибок не произошло
Конец отчёта
Приватный:
Нет (DHT включён)
Размер:
318.21 Мб (333,669,820 байт) » файлов: 6
Участники:
0 раздают, 0 качают (0 участников всего)
Внешние участники:
2 раздают, 1 качают (3 участников всего) [ Обновить ]
No seeders - write a personal message to user M0p94ok. Нет сидеров - пишите личное сообщение пользователю M0p94ok.
03:47
76
Нет комментариев. Ваш будет первым!