Поиск

(contemporary jazz, avantgarde) Cooper-Moore / Tom Abbs / Chad Taylor - Triptych Myth - 2003, FLAC (image+.cue), lossless

(contemporary jazz, avantgarde) Cooper-Moore / Tom Abbs / Chad Taylor - Triptych Myth - 2003, FLAC (image+.cue), lossless
Треклист:
Cooper-Moore / Tom Abbs / Chad Taylor - Triptych Myth
Жанр: contemporary jazz, avantgarde
Год выпуска диска: 2003
Производитель диска: USA (Hopscotch)
Аудио кодек: FLAC
Тип рипа: image+.cue
Битрейт аудио: lossless
Продолжительность: 53.04
Трэклист:
1 stem cell
2 nautilus
3 the fox
4 stop time #1
5 ricochet
6 harare
7 stop time #2
8 raising knox
9 spatter matter
10 stop time #3
11 spencer's eyes
12 susan
Доп. информация: Cooper-Moore - piano
Tom Abbs - bass
Chad Taylor - drums
Второй альбом этого великолепного состава - http://rutracker.org/forum/viewtopic.php?t=1032787
 
eac log
Exact Audio Copy V0.99 prebeta 4 from 23. January 2008
Отчёт EAC об извлечении, выполненном 26. сентября 2008, 2:41
Cooper-Moore, Tom Abbs, Chad Taylor / Triptych Myth
Дисковод: Optiarc DVD RW AD-7170A Adapter: 0 ID: 1
Режим чтения : Достоверность
Использование точного потока : Да
Отключение кэша аудио : Да
Использование указателей C2 : Нет
Коррекция смещения при чтении : 48
Способность читать области Lead-in и Lead-out : Нет
Заполнение пропущенных сэмплов тишиной : Да
Удаление блоков с тишиной в начале и конце : Нет
При вычислениях CRC использовались нулевые сэмплы : Да
Интерфейс : Встроенный Win32-интерфейс для Win NT/2000
Выходной формат : Пользовательский кодировщик
Выбранный битрейт : 768 kBit/s
Качество : Высокий
Добавление ID3-тэга : Нет
Утилита сжатия : D:\Program Files\Exact Audio Copy\FLAC\FLAC.EXE
Дополнительные параметры : -6 -V -T "ARTIST=%a" -T "TITLE=%t" -T "ALBUM=%g" -T "DATE=%y" -T "TRACKNUMBER=%n" -T "GENRE=%m" -T "COMMENT=%e" %s -o %d
TOC извлечённого CD
Трек | Старт | Длительность | Начальный сектор | Конечный сектор
---------------------------------------------------------------------
1 | 0:00.00 | 5:45.58 | 0 | 25932
2 | 5:45.58 | 3:27.55 | 25933 | 41512
3 | 9:13.38 | 3:06.00 | 41513 | 55462
4 | 12:19.38 | 5:29.50 | 55463 | 80187
5 | 17:49.13 | 0:53.38 | 80188 | 84200
6 | 18:42.51 | 6:05.64 | 84201 | 111639
7 | 24:48.40 | 1:38.32 | 111640 | 119021
8 | 26:26.72 | 6:16.14 | 119022 | 147235
9 | 32:43.11 | 6:59.36 | 147236 | 178696
10 | 39:42.47 | 1:33.10 | 178697 | 185681
11 | 41:15.57 | 5:54.65 | 185682 | 212296
12 | 47:10.47 | 5:53.42 | 212297 | 238813
Характеристики диапазона извлечения и сообщения об ошибках
Выбранный диапазон
Имя файла D:\EAC\Cooper-Moore, Tom Abbs, Chad Taylor - Triptych Myth.wav
Пиковый уровень 100.0 %
Качество диапазона 99.9 %
CRC копии D17FA2FD
Копирование... OK
Ошибок не произошло
AccurateRip: сводка
Трек 1 нет в базе данных
Трек 2 нет в базе данных
Трек 3 нет в базе данных
Трек 4 нет в базе данных
Трек 5 нет в базе данных
Трек 6 нет в базе данных
Трек 7 нет в базе данных
Трек 8 нет в базе данных
Трек 9 нет в базе данных
Трек 10 нет в базе данных
Трек 11 нет в базе данных
Трек 12 нет в базе данных
Ни одного трека нет в базе AccurateRip
Конец отчёта
Приватный:
Нет (DHT включён)
Размер:
292.03 Мб (306,216,641 байт) » файлов: 3
Участники:
0 раздают, 0 качают (0 участников всего)
Внешние участники:
2 раздают, 1 качают (3 участников всего) [ Обновить ]
No seeders - write a personal message to user M0p94ok. Нет сидеров - пишите личное сообщение пользователю M0p94ok.
03:47
56
Нет комментариев. Ваш будет первым!