Поиск

(Avantgarde Jazz / Guitar) Sonny Sharrock 1986 Guitar (remastered 1994) (Bill Laswell production), FLAC (image+.cue), lossless

(Avantgarde Jazz / Guitar) Sonny Sharrock 1986 Guitar (remastered 1994) (Bill Laswell production), FLAC (image+.cue), lossless
Треклист:
Sonny Sharrock - Guitar (remastered 1994)
Жанр: Avantgarde Jazz / Guitar
Год выпуска диска: 1986
Производитель диска: USA (Enemy Records)
Аудио кодек: FLAC
Тип рипа: image+.cue
Битрейт аудио: lossless
Продолжительность: 37:30
Трэклист:
01 Blind Willie (Sharrock) 4:41
02 Devils Doll Baby (Sharrock) 4:07
03 Broken Toys (Sharrock) 6:38
04 Black Bottom (Sharrock) 3:55
05 Kula-Mae (Sharrock) 5:07
06 Princess Sonata: Princess and the Magician (Sharrock) 4:05
07 Princess Sonata: Like Voices of Sleeping Birds (Sharrock) 3:08
08 Princess Sonata: Flowers Laugh (Sharrock) 2:12
09 Princess Sonata: They Enter the Dream (Sharrock) 3:32
Credits:
Sonny Sharrock - Guitar, Producer
Bill Laswell - Producer
Brad Johnson - Remixing
Mike Krowiak - Engineer, Mixing, recorded by
Thi-Linh Le - Photography
Jeff Lippay - Assistant Engineer, Mixing Assistant
Доп. информация:
Необыкновенной красоты альбом. Наряду с гитарной пиротехникой, как говорят западные журналисты, на альбоме встречается и блюз и замедленный рок-н-ролл.
Хочу заметить, что на альбоме нет других инструментов, кроме как электрогитары.
В оригинале 86 года 6-9 треки были объединены.
Рип с CD-R.
 
Отчет EAC
Exact Audio Copy V0.99 prebeta 3 from 28. July 2007
EAC extraction logfile from 20. September 2008, 23:53
Sonny Sharrock / Guitar
Used drive : ASUS DRW-1814BL Adapter: 0 ID: 1
Read mode : Secure
Utilize accurate stream : Yes
Defeat audio cache : Yes
Make use of C2 pointers : No
Read offset correction : 6
Overread into Lead-In and Lead-Out : No
Fill up missing offset samples with silence : Yes
Delete leading and trailing silent blocks : No
Null samples used in CRC calculations : Yes
Used interface : Installed external ASPI interface
Used output format : Internal WAV Routines
Sample format : 44.100 Hz; 16 Bit; Stereo
TOC of the extracted CD
Track | Start | Length | Start sector | End sector
---------------------------------------------------------
1 | 0:00.00 | 4:41.25 | 0 | 21099
2 | 4:41.25 | 4:07.47 | 21100 | 39671
3 | 8:48.72 | 6:38.08 | 39672 | 69529
4 | 15:27.05 | 3:55.52 | 69530 | 87206
5 | 19:22.57 | 5:07.65 | 87207 | 110296
6 | 24:30.47 | 4:05.60 | 110297 | 128731
7 | 28:36.32 | 3:08.65 | 128732 | 142896
8 | 31:45.22 | 2:12.18 | 142897 | 152814
9 | 33:57.40 | 3:32.02 | 152815 | 168716
Range status and errors
Selected range
Filename E:\ape\!torrent\release\flac\Sonny Sharrock 1986 Guitar\CDImage.wav
Peak level 99.8 %
Range quality 100.0 %
Copy CRC 5FD01256
Copy OK
No errors occurred
AccurateRip summary
Track 1 accurately ripped (confidence 2) [760371AB]
Track 2 accurately ripped (confidence 2) [619D48AC]
Track 3 accurately ripped (confidence 2) [2D271D06]
Track 4 accurately ripped (confidence 2) [2D8D958C]
Track 5 accurately ripped (confidence 2) [6B74EBE9]
Track 6 accurately ripped (confidence 2) [614C597C]
Track 7 accurately ripped (confidence 2) [96587DCC]
Track 8 accurately ripped (confidence 2) [88CC5637]
Track 9 accurately ripped (confidence 2) [3687AED7]
All tracks accurately ripped
End of status report

Другие сольники Шэррока:
Sonny Sharrock 1986 Guitar
Sonny Sharrock 1991 Ask The Ages
Приватный:
Нет (DHT включён)
Размер:
189.33 Мб (198,528,572 байт) » файлов: 5
Участники:
0 раздают, 0 качают (0 участников всего)
Внешние участники:
3 раздают, 1 качают (4 участников всего) [ Обновить ]
No seeders - write a personal message to user M0p94ok. Нет сидеров - пишите личное сообщение пользователю M0p94ok.
03:46
98
Нет комментариев. Ваш будет первым!