Поиск

(Free Improvisation) Roof - The Untraceable Cigar - 1996, FLAC (image+.cue), lossless

(Free Improvisation) Roof - The Untraceable Cigar - 1996, FLAC (image+.cue), lossless
Треклист:
Roof - The Untraceable Cigar
Жанр: Free Improvisation, Alternative Rock
Год выпуска диска: 1996
Производитель диска: Germany
Аудио кодек: FLAC
Тип рипа: image+.cue
Битрейт аудио: lossless
Трэклист:
1. The Trace
2. Reducing Machine
3. Blind Spots
4. Janna Lied
5. Markarian Waterhole
6. The Prince
7. Diving Bell
8. Sage In Doubt
9. The Letter
10. The Cryptographer's Pigeons
11. Blackbird
Доп. информация:
Luc Ex: Bass [Acoustic]
Tom Cora: Cello
Michael Vatcher: Drums
Phil Minton: Vocals
Label: Red Note
Ослиное
 
EAC log
Exact Audio Copy V0.99 prebeta 4 from 23. January 2008
EAC extraction logfile from 12. September 2008, 10:16
Roof / The Untraceable Cigar
Used drive : HL-DT-STDVDRAM GSA-H10N Adapter: 0 ID: 0
Read mode : Secure
Utilize accurate stream : Yes
Defeat audio cache : Yes
Make use of C2 pointers : No
Read offset correction : 667
Overread into Lead-In and Lead-Out : No
Fill up missing offset samples with silence : Yes
Delete leading and trailing silent blocks : No
Null samples used in CRC calculations : Yes
Used interface : Native Win32 interface for Win NT & 2000
Used output format : User Defined Encoder
Selected bitrate : 768 kBit/s
Quality : High
Add ID3 tag : No
Command line compressor : C:\Program Files\Exact Audio Copy\FLAC\FLAC.EXE
Additional command line options : --best -V -T "ARTIST=%a" -T "TITLE=%t" -T "ALBUM=%g" -T "DATE=%y" -T "TRACKNUMBER=%n" -T "GENRE=%m" -T "COMMENT=%e" %s -o %d
TOC of the extracted CD
Track | Start | Length | Start sector | End sector
---------------------------------------------------------
1 | 0:00.00 | 5:01.35 | 0 | 22609
2 | 5:01.35 | 2:01.22 | 22610 | 31706
3 | 7:02.57 | 5:44.73 | 31707 | 57579
4 | 12:47.55 | 5:58.70 | 57580 | 84499
5 | 18:46.50 | 2:31.17 | 84500 | 95841
6 | 21:17.67 | 3:47.13 | 95842 | 112879
7 | 25:05.05 | 9:28.40 | 112880 | 155519
8 | 34:33.45 | 4:58.02 | 155520 | 177871
9 | 39:31.47 | 3:58.18 | 177872 | 195739
10 | 43:29.65 | 2:10.07 | 195740 | 205496
11 | 45:39.72 | 2:19.23 | 205497 | 215944
Range status and errors
Selected range
Filename C:\Documents and Settings\sbesson\Bureau\Roof - The Untraceable Cigar.wav
Peak level 100.0 %
Range quality 100.0 %
Copy CRC 5E51F035
Copy OK
No errors occurred
AccurateRip summary
Track 1 not present in database
Track 2 not present in database
Track 3 not present in database
Track 4 not present in database
Track 5 not present in database
Track 6 not present in database
Track 7 not present in database
Track 8 not present in database
Track 9 not present in database
Track 10 not present in database
Track 11 not present in database
None of the tracks are present in the AccurateRip database
End of status report
Приватный:
Нет (DHT включён)
Размер:
300.26 Мб (314,849,365 байт) » файлов: 15
Участники:
0 раздают, 0 качают (0 участников всего)
Внешние участники:
1 раздают, 0 качают (1 участников всего) [ Обновить ]
No seeders - write a personal message to user M0p94ok. Нет сидеров - пишите личное сообщение пользователю M0p94ok.
03:45
54
Нет комментариев. Ваш будет первым!