Поиск

(Jazz / ECM) Egberto Gismonti Group - Infancia - 1991, FLAC (tracks), lossless

(Jazz / ECM) Egberto Gismonti Group - Infancia - 1991, FLAC (tracks), lossless
Треклист:
Egberto Gismonti Group - Infancia (ECM 1428)
Жанр: Jazz / ECM
Год выпуска диска: 1991
Производитель диска: USA
Аудио кодек: FLAC
Тип рипа: tracks
Битрейт аудио: lossless
Продолжительность: 01:02:49
Источник : net
Трэклист:
1. Ensaio de Escola de Samba (Danca Dos Escravos) (Gismonti) [8:50]
2. 7 Aneis (Gismonti) [9:10]
3. Meninas (Gismonti) [7:18]
4. Infancia (Gismonti) [10:48]
5. A Fala da Paixao (Gismonti) [6:14]
6. Recife & O Amor Que Move O Sol E Outras Estrelas (Gismonti) [11:01]
7. Danca No. 1 (Gismonti) [5:21]
8. Danca No. 2 (Gismonti) [4:07]
Performers:
Egberto Gismonti - piano, guitars;
Nando Carneiro - synthesizers, guitar;
Zeca Assumpcao - bass;
Jacques Morelenbaum - cello
Rec.: Nov 1990.
 
EAC
EAC extraction logfile from 12. January 2005, 17:27 for CD
Egberto Gismonti Group / Infancia
Used drive : SONY CD-RW CRX230E Adapter: 0 ID: 0
Read mode : Secure with NO C2, accurate stream, disable cache
Read offset correction : 6
Overread into Lead-In and Lead-Out : No
Used output format : Internal WAV Routines
44.100 Hz; 16 Bit; Stereo
Other options :
Fill up missing offset samples with silence : Yes
Delete leading and trailing silent blocks : No
Installed external ASPI interface
Track 1
Filename C:\01 - Ensaio de Escola de Samba (Danзa dos Escravos).wav
Pre-gap length 0:00:02.00
Peak level 97.7 %
Track quality 100.0 %
Test CRC 208D8EAD
Copy CRC 208D8EAD
Copy OK
Track 2
Filename C:\02 - 7 Anйis.wav
Pre-gap length 0:00:02.18
Peak level 94.7 %
Track quality 99.9 %
Test CRC 0EEB08A7
Copy CRC 0EEB08A7
Copy OK
Track 3
Filename C:\03 - Meninas.wav
Pre-gap length 0:00:03.10
Peak level 80.9 %
Track quality 100.0 %
Test CRC E8075D38
Copy CRC E8075D38
Copy OK
Track 4
Filename C:\04 - Infancia.wav
Pre-gap length 0:00:03.55
Peak level 97.7 %
Track quality 100.0 %
Test CRC A594C051
Copy CRC A594C051
Copy OK
Track 5
Filename C:\05 - A Fala da Paixгo.wav
Pre-gap length 0:00:03.60
Peak level 77.1 %
Track quality 100.0 %
Test CRC B898FCB6
Copy CRC B898FCB6
Copy OK
Track 6
Filename C:\06 - Recife & o Amor Que Move o Sol e Outras Estrelas.wav
Pre-gap length 0:00:04.10
Peak level 97.7 %
Track quality 100.0 %
Test CRC 776AE4EB
Copy CRC 776AE4EB
Copy OK
Track 7
Filename C:\07 - Danзa #1.wav
Pre-gap length 0:00:03.18
Peak level 94.3 %
Track quality 100.0 %
Test CRC AB6EDFC2
Copy CRC AB6EDFC2
Copy OK
Track 8
Filename C:\08 - Danзa #2.wav
Pre-gap length 0:00:02.33
Peak level 97.7 %
Track quality 100.0 %
Test CRC D07CECB4
Copy CRC D07CECB4
Copy OK
No errors occured
End of status report
 
Audiochecker 2.0 beta (build 457).log
-----------------------------------------------------------
Started at: вторник, 09. 12. 2008. - 1:13.24
8 files found
1 -===- E:\Muz\Blues&Jazz\Egberto Gismonti\Egberto Gismonti Group - Infancia {ecm 1428}(1990)\08 - Danca #2.flac
Extracted successfully
Conclusion: this track is CDDA with probability 100%
Tempfile successfully deleted.
2 -===- E:\Muz\Blues&Jazz\Egberto Gismonti\Egberto Gismonti Group - Infancia {ecm 1428}(1990)\01 - Ensaio de Escola de Samba (Danca dos Escravos).flac
Extracted successfully
Conclusion: this track is CDDA with probability 100%
Tempfile successfully deleted.
3 -===- E:\Muz\Blues&Jazz\Egberto Gismonti\Egberto Gismonti Group - Infancia {ecm 1428}(1990)\02 - 7 Aneis.flac
Extracted successfully
Conclusion: this track is CDDA with probability 100%
Tempfile successfully deleted.
4 -===- E:\Muz\Blues&Jazz\Egberto Gismonti\Egberto Gismonti Group - Infancia {ecm 1428}(1990)\03 - Meninas.flac
Extracted successfully
Conclusion: this track is CDDA with probability 100%
Tempfile successfully deleted.
5 -===- E:\Muz\Blues&Jazz\Egberto Gismonti\Egberto Gismonti Group - Infancia {ecm 1428}(1990)\04 - Infancia.flac
Extracted successfully
Conclusion: this track is CDDA with probability 100%
Tempfile successfully deleted.
6 -===- E:\Muz\Blues&Jazz\Egberto Gismonti\Egberto Gismonti Group - Infancia {ecm 1428}(1990)\05 - A Fala da Paixao.flac
Extracted successfully
Conclusion: this track is CDDA with probability 100%
Tempfile successfully deleted.
7 -===- E:\Muz\Blues&Jazz\Egberto Gismonti\Egberto Gismonti Group - Infancia {ecm 1428}(1990)\06 - Recife & o Amor Que Move o Sol e Outras Estrelas.flac
Extracted successfully
Conclusion: this track is CDDA with probability 100%
Tempfile successfully deleted.
8 -===- E:\Muz\Blues&Jazz\Egberto Gismonti\Egberto Gismonti Group - Infancia {ecm 1428}(1990)\07 - Danca #1.flac
Extracted successfully
Conclusion: this track is CDDA with probability 100%
Tempfile successfully deleted.
Finished at: вторник, 09. 12. 2008. - 1:25.04 (operation time: 0:11.39)
пс: к сожалению узнал о Gismonti совсем недавно.....


сорри ... с опозданием нашел на трэкере в архиве....
04:56
326
Нет комментариев. Ваш будет первым!