Поиск

(Джаз) Gonzalo Rubalcaba Live in Havana - 2007, FLAC (image+.cue), lossless

(Джаз) Gonzalo Rubalcaba Live in Havana - 2007, FLAC (image+.cue), lossless
Треклист:
Gonzalo Rubalcaba Live in Havana
Жанр: Джаз
Год выпуска диска: 2007
Производитель диска: Россия
Аудио кодек: FLAC
Тип рипа: image+.cue
Битрейт аудио: lossless
Продолжительность: 1:18:22
Трэклист:
1. Green Dolphin in the Street
2. Nueva Cubana
3. Concatenacion Heroica
4. Pluma
5. Pisando el Cesped
6. Regreso Feliz
 
Log EAC
Exact Audio Copy V0.99 prebeta 4 from 23. January 2008
Отчёт EAC об извлечении, выполненном 8. декабря 2008, 23:07
Rubalcaba, Gonzalo / Live in Havana
Дисковод: SONY DVD-ROM DDU1615 Adapter: 0 ID: 1
Режим чтения : Достоверность
Использование точного потока : Да
Отключение кэша аудио : Да
Использование указателей C2 : Да
Коррекция смещения при чтении : 6
Способность читать области Lead-in и Lead-out : Да
Заполнение пропущенных сэмплов тишиной : Да
Удаление блоков с тишиной в начале и конце : Нет
При вычислениях CRC использовались нулевые сэмплы : Да
Интерфейс : Установленный внешний ASPI-интерфейс
Выходной формат : Пользовательский кодировщик
Выбранный битрейт : 768 kBit/s
Качество : Высокий
Добавление ID3-тэга : Нет
Утилита сжатия : C:\Program Files\Exact Audio Copy\FLAC\FLAC.EXE
Дополнительные параметры : -6 -V -T "ARTIST=%a" -T "TITLE=%t" -T "ALBUM=%g" -T "DATE=%y" -T "TRACKNUMBER=%n" -T "GENRE=%m" -T "COMMENT=%e" %s -o %d
TOC извлечённого CD
Трек | Старт | Длительность | Начальный сектор | Конечный сектор
---------------------------------------------------------------------
1 | 0:00.00 | 12:53.73 | 0 | 58047
2 | 12:53.73 | 10:48.21 | 58048 | 106668
3 | 23:42.19 | 10:36.22 | 106669 | 154390
4 | 34:18.41 | 14:38.26 | 154391 | 220266
5 | 48:56.67 | 12:03.04 | 220267 | 274495
6 | 60:59.71 | 17:22.21 | 274496 | 352666
Характеристики диапазона извлечения и сообщения об ошибках
Выбранный диапазон
Имя файла E:\МУЗИКА\GONZALO RUBALCABA\Rubalcaba, Gonzalo - Live in Havana.wav
Пиковый уровень 99.8 %
Качество диапазона 99.9 %
CRC теста 8B63B92E
CRC копии 8B63B92E
Копирование... OK
Ошибок не произошло
AccurateRip: сводка
Трек 1 нет в базе данных
Трек 2 нет в базе данных
Трек 3 нет в базе данных
Трек 4 нет в базе данных
Трек 5 нет в базе данных
Трек 6 нет в базе данных
Ни одного трека нет в базе AccurateRip
Конец отчёта
 
Covers
04:55
344
Нет комментариев. Ваш будет первым!