Поиск

(Avantgarde, Jazz-Rock, Masada repertory, Tzadik) Rashanim / John Zorn - Masada 10th Anniversary Edition Vol. 5: Masada Rock - 2005, FLAC (tracks+.cue), lossless

(Avantgarde, Jazz-Rock, Masada repertory, Tzadik) Rashanim / John Zorn - Masada 10th Anniversary Edition Vol. 5: Masada Rock - 2005, FLAC (tracks+.cue), lossless
Треклист:
Rashanim / John Zorn- 10th Masada Anniversary Edition Vol. 5: Masada Rock
Жанр: Avantgarde, Jazz-Rock, Masada repertory, Tzadik
Год выпуска диска: 2005
Производитель диска: US
Аудио кодек: FLAC
Тип рипа: tracks+.cue
Битрейт аудио: lossless
Продолжительность: 48:06
Трэклист:
1 Bahir (4:08)
2 Makom (5:19)
3 Zidon (4:39)
4 Shadrakh (4:57)
5 Chorek (4:58)
6 Anakim (5:16)
7 Zemanim (3:45)
8 Ahavah (3:24)
9 Arad (3:01)
10 Terumah (8:27)
Shanir Ezra Blumenkranz: Electric Bass, Oud
Jon Madof: Guitar
Matthias Künzli: Drums, Percussion
Marc Ribot: Guitar on tracks 1 and 4
Пятый и последний диск из серии Masada 10th Anniversary Edition, отмечающей десятилетие первого сонгбука.
 
EAC
Exact Audio Copy V0.99 prebeta 3 from 28. July 2007
EAC extraction logfile from 21. October 2007, 23:39
John Zorn - Rashanim / Masada Rock
Used drive : MATSHITAUJDA765aDVD/CDRW Adapter: 0 ID: 1
Read mode : Secure
Utilize accurate stream : Yes
Defeat audio cache : Yes
Make use of C2 pointers : No
Read offset correction : 102
Overread into Lead-In and Lead-Out : No
Fill up missing offset samples with silence : Yes
Delete leading and trailing silent blocks : No
Null samples used in CRC calculations : Yes
Used interface : Installed external ASPI interface
Gap handling : Appended to previous track
Used output format : User Defined Encoder
Selected bitrate : 192 kBit/s
Quality : High
Add ID3 tag : No
Command line compressor : C:\Program Files\Exact Audio Copy\Flac\flac.exe
Additional command line options : -8 -A tukey(0.25) -A gauss(0.1875) -b 4096 -V -T "artist=%a" -T "title=%t" -T "album=%g" -T "date=%y" -T "tracknumber=%n" -T "genre=%m" %s --sector-align
TOC of the extracted CD
Track | Start | Length | Start sector | End sector
---------------------------------------------------------
1 | 0:00.00 | 4:10.56 | 0 | 18805
2 | 4:10.56 | 5:21.22 | 18806 | 42902
3 | 9:32.03 | 4:39.24 | 42903 | 63851
4 | 14:11.27 | 4:57.71 | 63852 | 86197
5 | 19:09.23 | 4:58.73 | 86198 | 108620
6 | 24:08.21 | 5:15.59 | 108621 | 132304
7 | 29:24.05 | 3:45.42 | 132305 | 149221
8 | 33:09.47 | 3:26.39 | 149222 | 164710
9 | 36:36.11 | 3:02.70 | 164711 | 178430
10 | 39:39.06 | 8:27.05 | 178431 | 216460
Track 1
Filename E:\Music\John Zorn - Masada Rock [FLAC]\01 - John Zorn - Rashanim - Bahir.wav
Pre-gap length 0:00:02.00
Peak level 100.0 %
Track quality 100.0 %
Test CRC CC4B07F5
Copy CRC CC4B07F5
Copy OK
Track 2
Filename E:\Music\John Zorn - Masada Rock [FLAC]\02 - John Zorn - Rashanim - Makhom.wav
Pre-gap length 0:00:01.93
Peak level 98.8 %
Track quality 100.0 %
Test CRC 2AB446B2
Copy CRC 2AB446B2
Copy OK
Track 3
Filename E:\Music\John Zorn - Masada Rock [FLAC]\03 - John Zorn - Rashanim - Zidon.wav
Pre-gap length 0:00:02.09
Peak level 98.8 %
Track quality 100.0 %
Test CRC C5A4A699
Copy CRC C5A4A699
Copy OK
Track 4
Filename E:\Music\John Zorn - Masada Rock [FLAC]\04 - John Zorn - Rashanim - Shadrakh.wav
Peak level 98.8 %
Track quality 100.0 %
Test CRC 896447E9
Copy CRC 896447E9
Copy OK
Track 5
Filename E:\Music\John Zorn - Masada Rock [FLAC]\05 - John Zorn - Rashanim - Chorek.wav
Pre-gap length 0:00:01.13
Peak level 98.8 %
Track quality 100.0 %
Test CRC 7858416D
Copy CRC 7858416D
Copy OK
Track 6
Filename E:\Music\John Zorn - Masada Rock [FLAC]\06 - John Zorn - Rashanim - Anakim.wav
Peak level 98.8 %
Track quality 99.9 %
Test CRC 74049824
Copy CRC 74049824
Copy OK
Track 7
Filename E:\Music\John Zorn - Masada Rock [FLAC]\07 - John Zorn - Rashanim - Zenanim.wav
Peak level 98.8 %
Track quality 100.0 %
Test CRC 24876F70
Copy CRC 24876F70
Copy OK
Track 8
Filename E:\Music\John Zorn - Masada Rock [FLAC]\08 - John Zorn - Rashanim - Ahavah.wav
Peak level 98.8 %
Track quality 99.9 %
Test CRC DF17E2D1
Copy CRC DF17E2D1
Copy OK
Track 9
Filename E:\Music\John Zorn - Masada Rock [FLAC]\09 - John Zorn - Rashanim - Arad.wav
Pre-gap length 0:00:01.78
Peak level 98.8 %
Track quality 99.9 %
Test CRC FEE945BA
Copy CRC FEE945BA
Copy OK
Track 10
Filename E:\Music\John Zorn - Masada Rock [FLAC]\10 - John Zorn - Rashanim - Terumah.wav
Pre-gap length 0:00:01.20
Peak level 98.8 %
Track quality 99.9 %
Test CRC FA414AAB
Copy CRC FA414AAB
Copy OK
No errors occurred
End of status report
 
tzadik
Rashanim is one of the hottest young bands in the New Jewish Renaissance and for their second Tzadik release guitarist Jon Madof has turned his versatile arranging talents to ten unknown songs from Zorn’s original Masada songbook. The music jumps from heavy rock to Jewish jazz, classical to world beat to create an eclectic program of modern Jewish music in the Zorn tradition. Featuring long time Masada veteran Marc Ribot on several tracks, this is one of the most powerful and dynamic readings of Masada music on disc.
03:54
256
Нет комментариев. Ваш будет первым!