Поиск

(Jazz, Tzadik) John Zorn - Voices In The Wilderness. Masada 10th Anniversary Edition, vol. 2 (double CD) - 2003, APE (image+.cue), lossless

Треклист:
John Zorn - Voices In The Wilderness. Masada 10th Anniversary Edition, vol. 2
Жанр: Jazz, Tzadik
Год выпуска диска: 2003
Производитель диска: USA
Лейбл: Tzadik (Radical Jewish Culture)
Аудио кодек: APE
Тип рипа: image+.cue
Битрейт аудио: lossless
Продолжительность: 61 min + 63 min
Трэклист:
John Zorn - Voices In The Wilderness. Masada 10th Anniversary Edition, vol. 2
Disc 1
1 Karaim - Pharaoh's Daughter
2 Kisofim - Ben Perowsky Trio
3 Meholalot - Cracow Klezmer Band
4 Lakom - Rova Saxophone Quartet
5 Tekufah - Zony Mash
6 Paran - Naftule's Dream
7 Khebar - Kramer
8 Nevalah - Satlah
9 Abidan - Jewlia Eisenberg
10 Tirzah - Pachora
11 Peliyot - Lemon Juice Quartet
12 Shebuah - Steven Bernstein
Disc 2
1 Ziphim - Medeski, Martin & Wood
2 Avodah - Rashanim
3 Rokhev - Davka
4 Tannaim - Tin Hat Trio
5 Acharei Mot - Peter Apfelbaum
6 Malkut - Mephista
7 Kochot - Mike Patton
8 Jair - Ben Goldberg Trio
9 Ne'eman - The Wollesens
10 Tahah - Professionales
11 Tiferet - Jenny Scheinman
12 Kedem - Jamie and Vanessa Saft
Доп. информация: Рип сделан с оригинального двойного CD TZ-7172-2... Картинки прилагаются...
Enjoy!
 
-Disc 1- EAC Log
Exact Audio Copy V0.99 prebeta 4 from 23. January 2008
EAC extraction logfile from 9. December 2008, 12:16
Various / Voices in the Wilderness (Disc 1)
Used drive : TSSTcorpCD/DVDW SH-W162C Adapter: 0 ID: 0
Read mode : Secure
Utilize accurate stream : Yes
Defeat audio cache : Yes
Make use of C2 pointers : No
Read offset correction : 6
Overread into Lead-In and Lead-Out : No
Fill up missing offset samples with silence : Yes
Delete leading and trailing silent blocks : No
Null samples used in CRC calculations : Yes
Used interface : Installed external ASPI interface
Used output format : Internal WAV Routines
Sample format : 44.100 Hz; 16 Bit; Stereo
Use compression offset : 0
TOC of the extracted CD
Track | Start | Length | Start sector | End sector
---------------------------------------------------------
1 | 0:00.00 | 4:19.19 | 0 | 19443
2 | 4:19.19 | 6:45.41 | 19444 | 49859
3 | 11:04.60 | 4:57.40 | 49860 | 72174
4 | 16:02.25 | 4:08.40 | 72175 | 90814
5 | 20:10.65 | 6:25.71 | 90815 | 119760
6 | 26:36.61 | 5:09.70 | 119761 | 143005
7 | 31:46.56 | 2:21.59 | 143006 | 153639
8 | 34:08.40 | 3:40.27 | 153640 | 170166
9 | 37:48.67 | 3:55.08 | 170167 | 187799
10 | 41:44.00 | 5:06.58 | 187800 | 210807
11 | 46:50.58 | 5:51.20 | 210808 | 237152
12 | 52:42.03 | 8:27.40 | 237153 | 275217
Range status and errors
Selected range
Filename C:\Various (2003) Voices In The Wilderness\Various - Voices in the Wilderness (Disc 1).wav
Peak level 100.0 %
Range quality 100.0 %
Copy CRC 351262AA
Copy OK
No errors occurred
End of status report
 
-Disc 2- EAC Log
Exact Audio Copy V0.99 prebeta 4 from 23. January 2008
EAC extraction logfile from 9. December 2008, 12:28
Various / Voices In The Wilderness (Disc 2)
Used drive : TSSTcorpCD/DVDW SH-W162C Adapter: 0 ID: 0
Read mode : Secure
Utilize accurate stream : Yes
Defeat audio cache : Yes
Make use of C2 pointers : No
Read offset correction : 6
Overread into Lead-In and Lead-Out : No
Fill up missing offset samples with silence : Yes
Delete leading and trailing silent blocks : No
Null samples used in CRC calculations : Yes
Used interface : Installed external ASPI interface
Used output format : Internal WAV Routines
Sample format : 44.100 Hz; 16 Bit; Stereo
Use compression offset : 0
TOC of the extracted CD
Track | Start | Length | Start sector | End sector
---------------------------------------------------------
1 | 0:00.00 | 7:17.34 | 0 | 32808
2 | 7:17.34 | 5:33.02 | 32809 | 57785
3 | 12:50.36 | 3:19.71 | 57786 | 72781
4 | 16:10.32 | 3:30.74 | 72782 | 88605
5 | 19:41.31 | 7:35.53 | 88606 | 122783
6 | 27:17.09 | 3:32.57 | 122784 | 138740
7 | 30:49.66 | 3:50.04 | 138741 | 155994
8 | 34:39.70 | 5:24.39 | 155995 | 180333
9 | 40:04.34 | 6:56.07 | 180334 | 211540
10 | 47:00.41 | 3:46.51 | 211541 | 228541
11 | 50:47.17 | 5:04.33 | 228542 | 251374
12 | 55:51.50 | 7:29.09 | 251375 | 285058
Range status and errors
Selected range
Filename C:\Various (2003) Voices In The Wilderness\Various - Voices In The Wilderness (Disc 2).wav
Peak level 100.0 %
Range quality 100.0 %
Copy CRC F377EC71
Copy OK
No errors occurred
End of status report
Мои раздачи
04:56
253
Нет комментариев. Ваш будет первым!