Поиск

(Jazz) David Murray Latin Big Band "Now Is Another Time" - 2003, FLAC (image+.cue), lossless

(Jazz) David Murray Latin Big Band "Now Is Another Time" - 2003, FLAC (image+.cue), lossless
Треклист:
David Murray Latin Big Band "Now Is Another Time"
Жанр: Jazz
Год выпуска диска: 2003
Аудио кодек: FLAC
Тип рипа: image+.cue
Битрейт аудио: lossless
Продолжительность: 01:12:31
Трэклист:
01. Crystal (8:32)
02. Aerol's Change (7:19)
03. Blue Muse (9:12)
04. Break Out (11:16)
05. Mambo Dominica (9:31)
06. Giovanni's Mission (6:35)
07. Sad Kind Of Love (20:04)
 
Отчет ЕАС
Exact Audio Copy V0.99 prebeta 3 from 28. July 2007
Отчёт EAC об извлечении, выполненном 8. сентября 2008, 17:52
David Murray Latin Big Band / Now Is Another Time
Дисковод: PIONEER DVD-RW DVR-111D Adapter: 1 ID: 1
Режим чтения : Достоверность
Использование точного потока : Да
Отключение кэша аудио : Да
Использование указателей C2 : Нет
Коррекция смещения при чтении : 48
Способность читать области Lead-in и Lead-out : Нет
Заполнение пропущенных сэмплов тишиной : Да
Удаление блоков с тишиной в начале и конце : Нет
При вычислениях CRC использовались нулевые сэмплы : Нет
Интерфейс : Встроенный Win32-интерфейс для Win NT/2000
Выходной формат : Пользовательский кодировщик
Выбранный битрейт : 768 kBit/s
Качество : Высокий
Добавление ID3-тэга : Нет
Утилита сжатия : C:\Program Files\Exact Audio Copy\FLAC\FLAC.EXE
Дополнительные параметры : -6 -V -T "ARTIST=%a" -T "TITLE=%t" -T "ALBUM=%g" -T "DATE=%y" -T "TRACKNUMBER=%n" -T "GENRE=%m" -T "COMMENT=%e" %s -o %d
TOC извлечённого CD
Трек | Старт | Длительность | Начальный сектор | Конечный сектор
---------------------------------------------------------------------
1 | 0:00.00 | 8:32.37 | 0 | 38436
2 | 8:32.37 | 7:18.70 | 38437 | 71356
3 | 15:51.32 | 9:11.68 | 71357 | 112749
4 | 25:03.25 | 11:15.40 | 112750 | 163414
5 | 36:18.65 | 9:31.25 | 163415 | 206264
6 | 45:50.15 | 6:34.57 | 206265 | 235871
7 | 52:24.72 | 20:04.40 | 235872 | 326211
Характеристики диапазона извлечения и сообщения об ошибках
Выбранный диапазон
Имя файла E:\Muzon-zip\My-ZIP\David Murray - Now Is Another Time\David Murray - Now Is Another Time.wav
Пиковый уровень 100.0 %
Качество диапазона 100.0 %
CRC копии AF4DD491
Копирование... OK
Ошибок не произошло
Конец отчёта
03:36
243
Нет комментариев. Ваш будет первым!