Поиск

(World Fusion, Jazz) Trilok Gurtu - Broken Rhythms - 2004, FLAC (image+.cue), lossless

(World Fusion, Jazz) Trilok Gurtu - Broken Rhythms - 2004, FLAC (image+.cue), lossless
Треклист:
Trilok Gurtu - Broken Rhythms
Жанр: Jazz
Год выпуска диска: 2004
Производитель диска: France
Аудио кодек: FLAC
Тип рипа: image+.cue
Битрейт аудио: lossless
Продолжительность: 44:27
Trilok Gurtu drums, percussion, yambo, tabla
Ravi Chary sitar
Sarosh Izedyar guitar
Pradep Pandit harmonium, boolbool tarang
Celia Reggiani piano, Hammond organ
Riaan Vosloo bass
Nitin Shanker duuff, gunru, congas, claypot, percission
Ganesh Kumar violin
Nilhadri Kumar sitar
Raja Bhatt dholak
Mrudula Desal vocals
Roop Kumar vocals
Sonali Rathod backing vocals
Richa Sharma vocals
Sanchita Farruque vocals
Special guests:
Gary Moore guitar
Huun Huur Tu:
Kaigal-ool Khovalyg throat singing, igil
Sayan Bapa throat singing, igil
Alexey Saryglar throat singing, igil
Andrey Mongush throat singing, byzaahchi
Arkè String Quartet:
Carlo Cantini violin
Valentino Corvino violin
Sandro Di Paolo alto
Enrico Guerzoni cello
1 Broken Rhythms
2 Kabir
3 Nine Horses
4 Beyond
5 Sohum
6 Vignola
7 Dubash Lane
8 The Way To Banganga

 
EAC Report
Exact Audio Copy V0.99 prebeta 4 from 23. January 2008
EAC extraction logfile from 23. June 2008, 0:16
Trilok Gurtu / Broken Rhythms
Used drive : TSSTcorpCD/DVDW SH-S182M Adapter: 2 ID: 1
Read mode : Secure
Utilize accurate stream : Yes
Defeat audio cache : Yes
Make use of C2 pointers : No
Read offset correction : 6
Overread into Lead-In and Lead-Out : No
Fill up missing offset samples with silence : Yes
Delete leading and trailing silent blocks : No
Null samples used in CRC calculations : No
Used interface : Installed external ASPI interface
Used output format : User Defined Encoder
Selected bitrate : 768 kBit/s
Quality : High
Add ID3 tag : No
Command line compressor : C:\Program Files\Exact Audio Copy\FLAC\FLAC.EXE
Additional command line options : -6 -V -T "ARTIST=%a" -T "TITLE=%t" -T "ALBUM=%g" -T "DATE=%y" -T "TRACKNUMBER=%n" -T "GENRE=%m" -T "COMMENT=%e" %s -o %d
TOC of the extracted CD
Track | Start | Length | Start sector | End sector
---------------------------------------------------------
1 | 0:00.00 | 4:44.23 | 0 | 21322
2 | 4:44.23 | 5:03.08 | 21323 | 44055
3 | 9:47.31 | 5:39.73 | 44056 | 69553
4 | 15:27.29 | 4:09.10 | 69554 | 88238
5 | 19:36.39 | 5:44.36 | 88239 | 114074
6 | 25:21.00 | 6:14.41 | 114075 | 142165
7 | 31:35.41 | 5:28.45 | 142166 | 166810
8 | 37:04.11 | 7:23.24 | 166811 | 200059
Range status and errors
Selected range
Filename F:\z\Trilok Gurtu - Broken Rhythms.wav
Peak level 100.0 %
Range quality 99.9 %
Copy CRC 1A63D0DF
Copy OK
No errors occurred
AccurateRip summary
Track 1 accurately ripped (confidence 2) [7FAF9DE8]
Track 2 accurately ripped (confidence 2) [F2988E67]
Track 3 accurately ripped (confidence 2) [6EBDC304]
Track 4 accurately ripped (confidence 2) [09C1978E]
Track 5 accurately ripped (confidence 2) [1CAED1D5]
Track 6 accurately ripped (confidence 2) [69212FA7]
Track 7 accurately ripped (confidence 2) [8A771942]
Track 8 accurately ripped (confidence 2) [2F541FB0]
All tracks accurately ripped
End of status report
ТОРРЕНТ ПЕРЕЗАЛИТ 24.05.2017, 16:39 МСК.
Прошу взять новый торрент файл.
02:35
229
Нет комментариев. Ваш будет первым!