Поиск

(Jazz Contemporary World Fusion) Richard Bona - Bona Makes You Sweat (Live) - 2008, APE (image+.cue), lossless

(Jazz Contemporary World Fusion) Richard Bona - Bona Makes You Sweat (Live) - 2008, APE (image+.cue), lossless
Треклист:
Richard Bona - Bona Makes You Sweat (Live)
Доп. информация: Жанр: Jazz Contemporary World Fusion
Год выпуска диска: 2008
Аудио кодек: APE
Тип рипа: image+.cue
Битрейт аудио: lossless
Продолжительность: 01:04:07
Трэклист:
1. Engingilaye & Te Dikalo
2. Kivu & Suninga
3. Kalabancoro
4. Samaouma
5. O Sen Sen Sen
6. Indiscretions & Please Don't Stop
7. Djombwe & I Wish & Trains
8. Te Dikalo
Richard Bona (bass & vocal)
Etienne Stadwjick (keyboards)
Ernesto Simpson (drums)
Samuel Torres (percussions)
Taylor Haskins (trumpet)
John Caban (guitar)
Produced by Richard Bona
Assistant Producer: Miclos Mester &
Matyas Szepesi/Smart Music
Executive Producer Daniel Richard
Recorded live by Daniel Boivin
at Club A38, Budapest
on July 11th & 12th 2007
Mixed by Pete Karam & Richard Bona
 
Лог EAC
Exact Audio Copy V0.99 prebeta 3 from 28. July 2007
EAC extraction logfile from 11. September 2008, 1:43
Richard Bona / Bona Makes You Sweat - Live
Used drive : PIONEER DVD-RW DVR-112D Adapter: 5 ID: 0
Read mode : Secure
Utilize accurate stream : Yes
Defeat audio cache : Yes
Make use of C2 pointers : No
Read offset correction : 48
Overread into Lead-In and Lead-Out : No
Fill up missing offset samples with silence : Yes
Delete leading and trailing silent blocks : No
Null samples used in CRC calculations : Yes
Used interface : Native Win32 interface for Win NT & 2000
Used output format : Monkey's Audio Lossless Encoder
Selected bitrate : High Lossless Compression
Quality : High
Add ID3 tag : Yes
Command line compressor : C:\Program Files\Monkey's Audio\MAC.exe
Additional command line options : %s %d -c3000
TOC of the extracted CD
Track | Start | Length | Start sector | End sector
---------------------------------------------------------
1 | 0:00.00 | 13:24.41 | 0 | 60340
2 | 13:24.41 | 8:01.53 | 60341 | 96468
3 | 21:26.19 | 5:25.52 | 96469 | 120895
4 | 26:51.71 | 6:16.48 | 120896 | 149143
5 | 33:08.44 | 6:48.43 | 149144 | 179786
6 | 39:57.12 | 8:40.17 | 179787 | 218803
7 | 48:37.29 | 9:50.47 | 218804 | 263100
8 | 58:28.01 | 5:39.32 | 263101 | 288557
Range status and errors
Selected range
Filename D:\Documents\Lss\New_Rip\Richard Bona - Bona Makes You Sweat - Live.wav
Peak level 100.0 %
Range quality 100.0 %
Copy CRC 3A1E61AD
Copy OK
No errors occurred
End of status report
03:36
230
Нет комментариев. Ваш будет первым!