Поиск

(Jazz) Carlos Santana / Divine Light: Reconstruction & Mix Translation by Bill Laswell - 2001, APE (image + .cue), lossless

Треклист:
Carlos Santana / Divine Light: Reconstruction & Mix Translation by Bill Laswell
Жанр: Jazz
Год выпуска: 2001
Формат: APE (image + .cue)
Битрейт аудио: lossless
Продолжительность: 1:00:12
Трэклист:
1. Angel Of Air
2. A Love Supreme
3. Illuminations
4. The Life Divine
5. Naima
6. Angel Of Sunlight
7. Bliss: The Eternal Now
8. Meditation
9. Bliss: The Eternal Now - Return
Доп. информация:
 
Отчёт EAC
Exact Audio Copy V0.99 prebeta 3 from 28. July 2007
Отчёт EAC об извлечении, выполненном 19. октября 2007, 13:26
Carlos Santana / Divine Light: Reconstruction & Mix Translation by Bill Laswell
Дисковод: HL-DT-STCD-RW GCE-8526B Adapter: 0 ID: 1
Режим чтения : Достоверность
Использование точного потока : Да
Отключение кэша аудио : Да
Использование указателей C2 : Нет
Коррекция смещения при чтении : 6
Способность читать области Lead-in и Lead-out : Нет
Заполнение пропущенных сэмплов тишиной : Да
Удаление блоков с тишиной в начале и конце : Нет
При вычислениях CRC использовались нулевые сэмплы : Да
Интерфейс : Встроенный Win32-интерфейс для Win NT/2000
Выходной формат : Внутренние WAV-операции
Формат сэмплов : 44.100 Гц; 16 бит; стерео
TOC извлечённого CD
Трек | Старт | Длительность | Начальный сектор | Конечный сектор
---------------------------------------------------------------------
1 | 0:00.00 | 11:19.24 | 0 | 50948
2 | 11:19.24 | 6:49.03 | 50949 | 81626
3 | 18:08.27 | 4:31.28 | 81627 | 101979
4 | 22:39.55 | 6:44.33 | 101980 | 132312
5 | 29:24.13 | 4:05.06 | 132313 | 150693
6 | 33:29.19 | 14:49.62 | 150694 | 217430
7 | 48:19.06 | 5:50.46 | 217431 | 243726
8 | 54:09.52 | 1:58.11 | 243727 | 252587
9 | 56:07.63 | 4:04.29 | 252588 | 270916
Характеристики диапазона извлечения и сообщения об ошибках
Выбранный диапазон
Имя файла D:\TEMP\Carlos Santana - Divine Light Reconstruction & Mix Translation by Bill Laswell.wav
Пиковый уровень 98.8 %
Качество диапазона 100.0 %
CRC копии 9898DCCA
Копирование... OK
Ошибок не произошло
Конец отчёта
Приватный:
Нет (DHT включён)
Размер:
381.78 Мб (400,324,432 байт) » файлов: 4
Участники:
0 раздают, 0 качают (0 участников всего)
Внешние участники:
1 раздают, 0 качают (1 участников всего) [ Обновить ]
No seeders - write personal message to user M0p94ok. Нет сидеров - пишите личное сообщение пользователю M0p94ok.
22:47
55
Нет комментариев. Ваш будет первым!