Поиск

(Free Jazz, Avant-Garde) The Vandermark 5 - Target Or Flag - 1998, APE (image + .cue), lossless

(Free Jazz, Avant-Garde) The Vandermark 5 - Target Or Flag - 1998, APE (image + .cue), lossless
Треклист:
The Vandermark 5 - Target Or Flag
Страна: USA
Жанр: Free Jazz, Avant-Garde
Год выпуска: 1998
Формат: APE (image + .cue)
Битрейт аудио: lossless
Трэклист:
The Vandermark 5 - Target or Flag
01. Sucker Punch 07:18
02. Attempted, Not Known 11:23
03. The Start of Something 08:11
04. Super Opaque 08:59
05. Last Call 08:02
06. New Luggage 08:35
07. 8k 06:45
08. Fever Dream 08:46
 
Отчет ЕАС
Exact Audio Copy V0.99 prebeta 3 from 28. July 2007
Отчёт EAC об извлечении, выполненном 20. октября 2007, 16:31
The Vandermark 5 / Target or Flag
Дисковод: PLEXTOR DVDR PX-755A Adapter: 2 ID: 0
Режим чтения : Достоверность
Использование точного потока : Да
Отключение кэша аудио : Да
Использование указателей C2 : Да
Коррекция смещения при чтении : 30
Способность читать области Lead-in и Lead-out : Нет
Заполнение пропущенных сэмплов тишиной : Да
Удаление блоков с тишиной в начале и конце : Нет
При вычислениях CRC использовались нулевые сэмплы : Нет
Интерфейс : Встроенный Win32-интерфейс для Win NT/2000
Выходной формат : Внутренние WAV-операции
Формат сэмплов : 44.100 Гц; 16 бит; стерео
TOC извлечённого CD
Трек | Старт | Длительность | Начальный сектор | Конечный сектор
---------------------------------------------------------------------
1 | 0:00.00 | 7:18.52 | 0 | 32901
2 | 7:18.52 | 11:23.43 | 32902 | 84169
3 | 18:42.20 | 8:11.17 | 84170 | 121011
4 | 26:53.37 | 8:59.45 | 121012 | 161481
5 | 35:53.07 | 8:02.15 | 161482 | 197646
6 | 43:55.22 | 8:35.20 | 197647 | 236291
7 | 52:30.42 | 6:45.55 | 236292 | 266721
8 | 59:16.22 | 8:46.30 | 266722 | 306201
Характеристики диапазона извлечения и сообщения об ошибках
Выбранный диапазон
Имя файла D:\Мои документы\Моя музыка\APE\The Vandermark 5 - Target or Flag\The Vandermark 5 - Target or Flag.wav
Пиковый уровень 100.0 %
Качество диапазона 100.0 %
CRC копии 917F832A
Копирование... OK
Ошибок не произошло
AccurateRip: сводка
Трек 1 нет в базе данных
Трек 2 нет в базе данных
Трек 3 нет в базе данных
Трек 4 нет в базе данных
Трек 5 нет в базе данных
Трек 6 нет в базе данных
Трек 7 нет в базе данных
Трек 8 нет в базе данных
Ни одного трека нет в базе AccurateRip
Конец отчёта
 
TauAnalyzer
Доп. информация: Рип с CD-R. Сканы отсутствуют
Приватный:
Нет (DHT включён)
Размер:
365.33 Мб (383,075,608 байт) » файлов: 3
Участники:
0 раздают, 0 качают (0 участников всего)
Внешние участники:
--- [ Обновить ]
No seeders - write a personal message to user M0p94ok. Нет сидеров - пишите личное сообщение пользователю M0p94ok.
22:48
75
Нет комментариев. Ваш будет первым!