Поиск

(Free Jazz\Free Funk) Spaceways Inc - Thirteen Cosmic Standards by Sun Ra and Funkadelic (feat. K. Vandermark) - 2000, FLAC (tracks), lossless

(Free Jazz\Free Funk) Spaceways Inc - Thirteen Cosmic Standards by Sun Ra and Funkadelic (feat. K. Vandermark) - 2000, FLAC (tracks), lossless
Треклист:
Spaceways Inc - Thirteen Cosmic Standards by Sun Ra and Funkadelic (feat. K. Vandermark)
Страна: USA
Жанр: Free Jazz\Free Funk
Год выпуска: 2000
Формат: FLAC (tracks)
Битрейт аудио: lossless
Продолжительность: 61:48:42
Трэклист:
01. Tapestry From an Asteroid [0:06:51.71]
02. Alice in my fantasies/Cosmic Slop [0:05:23.15]
03. Street Named Hell [0:05:34.34]
04. Trash a Go-Go [0:03:51.40]
05. Bassism [0:06:56.39]
06. Red Hot Mama / Super Stupid [0:07:35.73]
07. El is a Sound of Joy [0:05:57.20]
08. Future [0:05:15.13]
09. You and Your Folks, Me and My Folks / Hit It and Quit It [0:08:20.00]
10. We Travel the Spaceways [0:06:02.37]
 
log
Exact Audio Copy V0.99 prebeta 3 from 28. July 2007
EAC extraction logfile from 22. October 2007, 15:59
Ken Vandermark, Hamid Drake, Nate McBride / Spaceways Incorporated
Used drive : HL-DT-STDVD-ROM GDR8163B Adapter: 1 ID: 1
Read mode : Secure
Utilize accurate stream : Yes
Defeat audio cache : Yes
Make use of C2 pointers : Yes
Combined read/write offset correction : 0
Overread into Lead-In and Lead-Out : No
Fill up missing offset samples with silence : Yes
Delete leading and trailing silent blocks : No
Null samples used in CRC calculations : No
Used interface : Native Win32 interface for Win NT & 2000
Gap handling : Appended to previous track
Used output format : User Defined Encoder
Selected bitrate : 768 kBit/s
Quality : High
Add ID3 tag : No
Command line compressor : C:\Program Files\Exact Audio Copy\FLAC\FLAC.EXE
Additional command line options : -6 -V -T "ARTIST=%a" -T "TITLE=%t" -T "ALBUM=%g" -T "DATE=%y" -T "TRACKNUMBER=%n" -T "GENRE=%m" -T "COMMENT=%e" %s -o %d
TOC of the extracted CD
Track | Start | Length | Start sector | End sector
---------------------------------------------------------
1 | 0:00.00 | 6:51.71 | 0 | 30895
2 | 6:51.71 | 5:23.15 | 30896 | 55135
3 | 12:15.11 | 5:34.34 | 55136 | 80219
4 | 17:49.45 | 3:51.40 | 80220 | 97584
5 | 21:41.10 | 6:56.39 | 97585 | 128823
6 | 28:37.49 | 7:35.73 | 128824 | 163021
7 | 36:13.47 | 5:57.20 | 163022 | 189816
8 | 42:10.67 | 5:15.13 | 189817 | 213454
9 | 47:26.05 | 8:20.00 | 213455 | 250954
10 | 55:46.05 | 6:02.37 | 250955 | 278141
Track 1
Filename C:\Family_Folder\Torrent\0_My_Music\Spaceways Inc - Thitheen Cosmic Standards by Sun Ra and Funkadelic (2000)\Ken Vandermark, Hamid Drake, Nate McBride-01Tapestry From an Asteroid.wav
Pre-gap length 0:00:02.00
Peak level 50.9 %
Track quality 100.0 %
Copy CRC 94DF8183
Copy OK
Track 2
Filename C:\Family_Folder\Torrent\0_My_Music\Spaceways Inc - Thitheen Cosmic Standards by Sun Ra and Funkadelic (2000)\Ken Vandermark, Hamid Drake, Nate McBride-02Alice in my fantasies,Cosmic Slop.wav
Peak level 96.3 %
Track quality 99.9 %
Copy CRC 0EB32690
Copy OK
Track 3
Filename C:\Family_Folder\Torrent\0_My_Music\Spaceways Inc - Thitheen Cosmic Standards by Sun Ra and Funkadelic (2000)\Ken Vandermark, Hamid Drake, Nate McBride-03Street Named Hell.wav
Peak level 91.0 %
Track quality 100.0 %
Copy CRC 506B6556
Copy OK
Track 4
Filename C:\Family_Folder\Torrent\0_My_Music\Spaceways Inc - Thitheen Cosmic Standards by Sun Ra and Funkadelic (2000)\Ken Vandermark, Hamid Drake, Nate McBride-04Trash a Go-Go.wav
Peak level 97.0 %
Track quality 100.0 %
Copy CRC 03804638
Copy OK
Track 5
Filename C:\Family_Folder\Torrent\0_My_Music\Spaceways Inc - Thitheen Cosmic Standards by Sun Ra and Funkadelic (2000)\Ken Vandermark, Hamid Drake, Nate McBride-05Bassism.wav
Peak level 79.0 %
Track quality 100.0 %
Copy CRC 6DDC9032
Copy OK
Track 6
Filename C:\Family_Folder\Torrent\0_My_Music\Spaceways Inc - Thitheen Cosmic Standards by Sun Ra and Funkadelic (2000)\Ken Vandermark, Hamid Drake, Nate McBride-06Red Hot Mama , Super Stupid.wav
Peak level 96.0 %
Track quality 100.0 %
Copy CRC 9D20104B
Copy OK
Track 7
Filename C:\Family_Folder\Torrent\0_My_Music\Spaceways Inc - Thitheen Cosmic Standards by Sun Ra and Funkadelic (2000)\Ken Vandermark, Hamid Drake, Nate McBride-07El is a Sound of Joy.wav
Peak level 83.2 %
Track quality 100.0 %
Copy CRC B95ADBC5
Copy OK
Track 8
Filename C:\Family_Folder\Torrent\0_My_Music\Spaceways Inc - Thitheen Cosmic Standards by Sun Ra and Funkadelic (2000)\Ken Vandermark, Hamid Drake, Nate McBride-08Future.wav
Peak level 85.2 %
Track quality 100.0 %
Copy CRC 0A139BEB
Copy OK
Track 9
Filename C:\Family_Folder\Torrent\0_My_Music\Spaceways Inc - Thitheen Cosmic Standards by Sun Ra and Funkadelic (2000)\Ken Vandermark, Hamid Drake, Nate McBride-09You and Your Folks, Me and My Folks , Hit It and Quit It.wav
Peak level 97.9 %
Track quality 100.0 %
Copy CRC A7C8A4A8
Copy OK
Track 10
Filename C:\Family_Folder\Torrent\0_My_Music\Spaceways Inc - Thitheen Cosmic Standards by Sun Ra and Funkadelic (2000)\Ken Vandermark, Hamid Drake, Nate McBride-10We Travel the Spaceways.wav
Peak level 61.3 %
Track quality 100.0 %
Copy CRC 8B3A1A6C
Copy OK
No errors occurred
End of status report
Доп. информация:
В продолжение темы Кена Вандермарка и его плодовитой (да поправит меня Bahobaho) карьеры.
Альбом-посвящение Сан Ра и Фанкаделику и состоит из микса их каверов - любители обоих будут приятно удивлены.
Музыканты - элита средневозростного Чикаго:
Ken Vandermark - reeds
Hamid Drake - drums
Nate McBride - bass
Записан на Атавистике (CD-copy) - макулатуры не имею.
Вот здесь ещё два Спэйвэйса
ZU and Spaceways Inc - Radiale
Spaceways Inc - Version Soul
Ну в завершение - коментарии более чем прИветствуются
Приватный:
Нет (DHT включён)
Размер:
350.62 Мб (367,648,371 байт) » файлов: 11
Участники:
0 раздают, 0 качают (0 участников всего)
Внешние участники:
2 раздают, 1 качают (3 участников всего) [ Обновить ]
Есть вопросы - пишите личное сообщение пользователю M0p94ok.
22:49
54
Нет комментариев. Ваш будет первым!