Поиск

(Jazz) Bill Frisell - With Dave Holland And Elvin Jones - 2001, FLAC (image + .cue), lossless

(Jazz) Bill Frisell - With Dave Holland And Elvin Jones - 2001, FLAC (image + .cue), lossless
Треклист:
Bill Frisell - With Dave Holland And Elvin Jones
Страна: USA
Жанр: Jazz
Год выпуска: 2001
Формат: FLAC (image + .cue)
Битрейт аудио: lossless
Трэклист:
Bill Frisell - With Dave Holland And Elvin Jones

01. Outlaws 07:55
02. Twenty Years 03:15
03. Coffaro's Theme 04:51
04. Blues Dream 04:48
05. Moon River 06:26
06. Tell Your Ma, Tell Your Pa 09:07
07. Strange Meeting 05:26
08. Convict 13 03:56
09. Again 07:33
10. Hard Times 03:41
11. Justice And Honor 04:49
12. Smilin' Jones 05:02
 
Отчет ЕАС
Exact Audio Copy V0.99 prebeta 3 from 28. July 2007
Отчёт EAC об извлечении, выполненном 17. октября 2007, 8:17
Bill Frisell / With Dave Holland And Elvin Jones
Дисковод: PLEXTOR DVDR PX-755A Adapter: 2 ID: 0
Режим чтения : Достоверность
Использование точного потока : Да
Отключение кэша аудио : Да
Использование указателей C2 : Да
Коррекция смещения при чтении : 30
Способность читать области Lead-in и Lead-out : Нет
Заполнение пропущенных сэмплов тишиной : Да
Удаление блоков с тишиной в начале и конце : Нет
При вычислениях CRC использовались нулевые сэмплы : Нет
Интерфейс : Встроенный Win32-интерфейс для Win NT/2000
Выходной формат : Внутренние WAV-операции
Формат сэмплов : 44.100 Гц; 16 бит; стерео
TOC извлечённого CD
Трек | Старт | Длительность | Начальный сектор | Конечный сектор
---------------------------------------------------------------------
1 | 0:00.32 | 7:55.35 | 32 | 35691
2 | 7:55.67 | 3:15.30 | 35692 | 50346
3 | 11:11.22 | 4:51.53 | 50347 | 72224
4 | 16:03.00 | 4:48.72 | 72225 | 93896
5 | 20:51.72 | 6:26.10 | 93897 | 122856
6 | 27:18.07 | 9:07.45 | 122857 | 163926
7 | 36:25.52 | 5:26.10 | 163927 | 188386
8 | 41:51.62 | 3:56.05 | 188387 | 206091
9 | 45:47.67 | 7:33.68 | 206092 | 240134
10 | 53:21.60 | 3:41.00 | 240135 | 256709
11 | 57:02.60 | 4:49.32 | 256710 | 278416
12 | 61:52.17 | 5:02.33 | 278417 | 301099
Характеристики диапазона извлечения и сообщения об ошибках
Выбранный диапазон
Имя файла D:\Мои документы\Моя музыка\APE\Bill Frisell - With Dave Holland And Elvin Jones\Bill Frisell - With Dave Holland And Elvin Jones.wav
Пиковый уровень 99.8 %
Качество диапазона 100.0 %
CRC копии 5781827D
Копирование... OK
Ошибок не произошло
AccurateRip: сводка
Трек 1 точное извлечение (доверие 5) [B2987EA7]
Трек 2 точное извлечение (доверие 5) [0C4E4931]
Трек 3 точное извлечение (доверие 5) [A05A663A]
Трек 4 точное извлечение (доверие 5) [D21953C6]
Трек 5 точное извлечение (доверие 5) [E1C4B576]
Трек 6 точное извлечение (доверие 5) [20772A0D]
Трек 7 точное извлечение (доверие 5) [00C14CE1]
Трек 8 точное извлечение (доверие 5) [E98B70E3]
Трек 9 точное извлечение (доверие 4) [6436C520]
Трек 10 точное извлечение (доверие 4) [67591383]
Трек 11 точное извлечение (доверие 4) [5FA18106]
Трек 12 точное извлечение (доверие 5) [391DE280]
Все треки извлечены точно
Конец отчёта
Доп. информация: По моему скромному мнению это один из лучших альбомов Билла Фризелля. Ну а участие в проекте ещё и Дэйва Холланда с Элвином Джонсом просто говорит само за себя. Великолепная музыка, отличный звук, море кайфа . Рип с фирмЫ, сканы в комплекте.
Приватный:
Нет (DHT включён)
Размер:
439.71 Мб (461,069,026 байт) » файлов: 9
Участники:
0 раздают, 0 качают (0 участников всего)
Внешние участники:
5 раздают, 2 качают (7 участников всего) [ Обновить ]
Есть вопросы - пишите личное сообщение пользователю M0p94ok.
22:46
134
Нет комментариев. Ваш будет первым!