Поиск

(Piano Jazz) Marilyn Crispell - Labyrinths - 1987, FLAC (tracks)

Треклист:
Marilyn Crispell - Labyrinths
Страна : USA
Жанр : Piano Jazz
Год выпуска: 1987
Формат : FLAC (tracks)
Трэклист:
1. Threads in the Ozone
2. Still Womb of Light
3. You Don't Know What Love Is
4. Labyrinths
5. Lazy Bird
6. After the Rain
7. Chanteur Qui Danse
8. Encore
9. Over the Rainbow
Доп. информация :
Marilyn Crispell (piano)
Раздается с личного согласия оригинального релизера.
Сканы, log, cue, m3u, test & copy EAC rip.
Marilyn Crispell - For Coltrane - 1987
Marilyn Crispell - Storyteller - 2004
Marilyn Crispell - Stellar Pulsations - 1992
Marilyn Crispell - Live In San Francisco - 1990
Marilyn Crispell - Labyrinths - 1987
 
Отчёт EAC
EAC extraction logfile from 3. May 2007, 22:54 for CD
Marilyn Crispell / Labyrinths
Used drive : PHILIPS DROM6216 Adapter: 3 ID: 0
Read mode : Secure with NO C2, accurate stream, disable cache
Read offset correction : 738
Overread into Lead-In and Lead-Out : No
Used output format : C:\Program Files\FLAC\flac.exe (User Defined Encoder)
320 kBit/s
Additional command line options : -V -8 -T "artist=%a" -T "title=%t" -T "album=%g" -T "date=%y" -T "tracknumber=%n" -T "genre=%m" %s
Other options :
Fill up missing offset samples with silence : Yes
Delete leading and trailing silent blocks : No
Native Win32 interface for Win NT & 2000
Track 1
Filename C:\Back up 2\Marilyn Crispell - Labyrinths(1987)[flac]\01 - Threads In The Ozone.wav
Pre-gap length 0:00:02.42
Peak level 93.0 %
Track quality 100.0 %
Test CRC E4812A2B
Copy CRC E4812A2B
Copy OK
Track 2
Filename C:\Back up 2\Marilyn Crispell - Labyrinths(1987)[flac]\02 - Still Womb Of Light.wav
Peak level 93.0 %
Track quality 100.0 %
Test CRC 155A90B6
Copy CRC 155A90B6
Copy OK
Track 3
Filename C:\Back up 2\Marilyn Crispell - Labyrinths(1987)[flac]\03 - You Don't Know What Love Is.wav
Pre-gap length 0:00:02.46
Peak level 93.0 %
Track quality 100.0 %
Test CRC CFCDDDD0
Copy CRC CFCDDDD0
Copy OK
Track 4
Filename C:\Back up 2\Marilyn Crispell - Labyrinths(1987)[flac]\04 - Labyrinths.wav
Pre-gap length 0:00:01.66
Peak level 93.0 %
Track quality 100.0 %
Test CRC 624A0732
Copy CRC 624A0732
Copy OK
Track 5
Filename C:\Back up 2\Marilyn Crispell - Labyrinths(1987)[flac]\05 - Lazy Bird.wav
Peak level 93.0 %
Track quality 99.9 %
Test CRC EBDFC831
Copy CRC EBDFC831
Copy OK
Track 6
Filename C:\Back up 2\Marilyn Crispell - Labyrinths(1987)[flac]\06 - After The Rain.wav
Pre-gap length 0:00:02.80
Peak level 93.0 %
Track quality 100.0 %
Test CRC A5357F50
Copy CRC A5357F50
Copy OK
Track 7
Filename C:\Back up 2\Marilyn Crispell - Labyrinths(1987)[flac]\07 - Au Chanteur Qui Danse.wav
Pre-gap length 0:00:04.33
Peak level 98.3 %
Track quality 100.0 %
Test CRC 92E6E7AE
Copy CRC 92E6E7AE
Copy OK
Track 8
Filename C:\Back up 2\Marilyn Crispell - Labyrinths(1987)[flac]\08 - Encore.wav
Pre-gap length 0:00:03.40
Peak level 98.2 %
Track quality 100.0 %
Test CRC 103F669D
Copy CRC 103F669D
Copy OK
Track 9
Filename C:\Back up 2\Marilyn Crispell - Labyrinths(1987)[flac]\09 - Over The Rainbow.wav
Peak level 67.9 %
Track quality 100.0 %
Test CRC 2B8FD53C
Copy CRC 2B8FD53C
Copy OK
No errors occured
End of status report
 
Избранная дискография Мэрилин
Spirit Music Cadence, 1981.
Live in Berlin Black Saint, 1982.
A Concert in Berlin FMP, 1983.
Rhythms Hung in Undrawn Sky Leo, 1983.
And Your Ivory Voice Sings Leo, 1985.
For Coltrane Leo, 1987.
Gaia Leo, 1987.
Labyrinths Victo, 1987.
Quartet Improvisations Leo, 1987.
Kitchen Concerts Leo, 1989.
Live in San Francisco Music & Arts, 1989.
Live in Zurich Leo, 1989.
Circles Victo, 1990.
Overlapping Hands: Eight Segments FMP, 1990.
Piano Duets Leo, 1991.
Images Music & Arts, 1991.
Duo Knitting, 1992.
Hyperion Music & Arts, 1992.
Inference Music & Arts, 1992.
On Tour: Highlights from the Summer of 1992 American Tour Music & Arts, 1992.
Stellar Pulsations/Three Composers Leo, 1992.
Cascades Music & Arts, 1993.
Santuerio Leo, 1993.
Band on the Wall Matchless, 1994.
Contrasts: Live at Yoshi's Music & Arts, 1995.
Live at Mills College 1995 Music & Arts, 1995.
MGM Trio Ramboy, 1995.
Woodstock Concert Music & Arts, 1995.
Destiny Okka Disk, 1996.
Nothing Ever Was, Anyway: The Music of Annette Peacock ECM, 1997.
Dark Night and Luminous Musica Secreta, 1998.
Red Black Saint, 1999.
Amaryllis ECM, 2001.
Blue Black Saint, 2001.
Приватный:
Нет (DHT включён)
Размер:
289.93 Мб (304,018,445 байт) » файлов: 19
Участники:
0 раздают, 0 качают (0 участников всего)
Внешние участники:
2 раздают, 1 качают (3 участников всего) [ Обновить ]
Есть вопросы - пишите личное сообщение пользователю M0p94ok.
22:45
116
Нет комментариев. Ваш будет первым!