Поиск

(Jazz, Bossa Nova) Marcela Mangabeira - Simples - 2008, APE (tracks+.cue) lossless

Треклист:
Marcela Mangabeira - Simples
Жанр: Jazz, Bossa Nova
Год издания диска: 2008
Издатель (лейбл): NuGroove Records
Номер по каталогу: 893422005032
Страна: Brazil
Аудио кодек: APE (*.ape)
Тип рипа: tracks+.cue
Битрейт аудио: lossless
Продолжительность: 0:43:53
Источник : найдено в Интернете
Наличие сканов в содержимом раздачи: Front
Треклист:
01. Rio
02. Love Dance
03. Para Ti
04. Os Grilos (Crickets Sing for Ana Maria)
05. Insensatez
06. So Quis Voce
07. Pro Menesca (P'ru Ze)
08. Eu E A Brisa
09. Pro Tom
10. A Ra
11. Voo Sobre O Horizonte
12. So Danco Samba
Доп. информация: Очень красивый и мелодичный альбом.
 
EAC Log
Exact Audio Copy V0.99 prebeta 4 from 23. January 2008
EAC extraction logfile from 23. November 2008, 12:04
Marcela Mangabeira / Simples
Used drive : HP DVD Writer 640b Adapter: 3 ID: 0
Read mode : Secure
Utilize accurate stream : Yes
Defeat audio cache : Yes
Make use of C2 pointers : No
Read offset correction : 102
Overread into Lead-In and Lead-Out : No
Fill up missing offset samples with silence : Yes
Delete leading and trailing silent blocks : No
Null samples used in CRC calculations : Yes
Used interface : Native Win32 interface for Win NT & 2000
Gap handling : Appended to previous track
Used output format : Internal WAV Routines
Sample format : 44.100 Hz; 16 Bit; Stereo
TOC of the extracted CD
Track | Start | Length | Start sector | End sector
---------------------------------------------------------
1 | 0:00.00 | 4:28.38 | 0 | 20137
2 | 4:28.38 | 3:41.22 | 20138 | 36734
3 | 8:09.60 | 3:17.38 | 36735 | 51547
4 | 11:27.23 | 3:06.21 | 51548 | 65518
5 | 14:33.44 | 4:06.33 | 65519 | 84001
6 | 18:40.02 | 3:00.60 | 84002 | 97561
7 | 21:40.62 | 3:32.51 | 97562 | 113512
8 | 25:13.38 | 4:27.34 | 113513 | 133571
9 | 29:40.72 | 2:45.04 | 133572 | 145950
10 | 32:26.01 | 3:21.31 | 145951 | 161056
11 | 35:47.32 | 5:32.31 | 161057 | 185987
12 | 41:19.63 | 2:33.30 | 185988 | 197492
Track 1
Filename D:\My Documents 2\My Music 2\01 - rio - Marcela Mangabeira.wav
Pre-gap length 0:00:02.00
Peak level 100.0 %
Track quality 100.0 %
Test CRC CE6DBCA7
Copy CRC CE6DBCA7
Track not present in AccurateRip database
Copy OK
Track 2
Filename D:\My Documents 2\My Music 2\02 - love dance - Marcela Mangabeira.wav
Peak level 99.9 %
Track quality 100.0 %
Test CRC 802E076B
Copy CRC 802E076B
Track not present in AccurateRip database
Copy OK
Track 3
Filename D:\My Documents 2\My Music 2\03 - para ti - Marcela Mangabeira.wav
Peak level 99.9 %
Track quality 100.0 %
Test CRC 25998AB7
Copy CRC 25998AB7
Track not present in AccurateRip database
Copy OK
Track 4
Filename D:\My Documents 2\My Music 2\04 - os grilos [crickets sing for ana maria] - Marcela Mangabeira.wav
Peak level 99.9 %
Track quality 99.9 %
Test CRC 77E49CB6
Copy CRC 77E49CB6
Track not present in AccurateRip database
Copy OK
Track 5
Filename D:\My Documents 2\My Music 2\05 - insensatez - Marcela Mangabeira.wav
Peak level 99.9 %
Track quality 100.0 %
Test CRC 4073C110
Copy CRC 4073C110
Track not present in AccurateRip database
Copy OK
Track 6
Filename D:\My Documents 2\My Music 2\06 - sу quis vocк - Marcela Mangabeira.wav
Peak level 99.9 %
Track quality 99.9 %
Test CRC 97244489
Copy CRC 97244489
Track not present in AccurateRip database
Copy OK
Track 7
Filename D:\My Documents 2\My Music 2\07 - pro menesca [pґruzй] - Marcela Mangabeira.wav
Peak level 99.9 %
Track quality 100.0 %
Test CRC 971F838A
Copy CRC 971F838A
Track not present in AccurateRip database
Copy OK
Track 8
Filename D:\My Documents 2\My Music 2\08 - eu e a brisa - Marcela Mangabeira.wav
Peak level 100.0 %
Track quality 100.0 %
Test CRC 7746AB06
Copy CRC 7746AB06
Track not present in AccurateRip database
Copy OK
Track 9
Filename D:\My Documents 2\My Music 2\09 - pro tom - Marcela Mangabeira.wav
Peak level 99.9 %
Track quality 99.9 %
Test CRC CA810561
Copy CRC CA810561
Track not present in AccurateRip database
Copy OK
Track 10
Filename D:\My Documents 2\My Music 2\10 - a rг - Marcela Mangabeira.wav
Peak level 100.0 %
Track quality 99.9 %
Test CRC 2E26A6E8
Copy CRC 2E26A6E8
Track not present in AccurateRip database
Copy OK
Track 11
Filename D:\My Documents 2\My Music 2\11 - vфo sobre o horizonte - Marcela Mangabeira.wav
Peak level 99.9 %
Track quality 99.9 %
Test CRC 8191C112
Copy CRC 8191C112
Track not present in AccurateRip database
Copy OK
Track 12
Filename D:\My Documents 2\My Music 2\12 - sу danзo samba - Marcela Mangabeira.wav
Peak level 100.0 %
Track quality 100.0 %
Test CRC D4F59BD2
Copy CRC D4F59BD2
Track not present in AccurateRip database
Copy OK
None of the tracks are present in the AccurateRip database
No errors occurred
End of status report
 
Содержание индексной карты (.CUE)
REM DATE 2006
REM DISCID A30A490C
REM COMMENT "ExactAudioCopy v0.99pb4"
PERFORMER "Marcela Mangabeira"
TITLE "Simples"
FILE "01. Rio.wav" WAVE
TRACK 01 AUDIO
TITLE "Rio"
PERFORMER "Marcela Mangabeira"
INDEX 01 00:00:00
FILE "02. Love Dance.wav" WAVE
TRACK 02 AUDIO
TITLE "Love Dance"
PERFORMER "Marcela Mangabeira"
INDEX 01 00:00:00
FILE "03. Para Ti.wav" WAVE
TRACK 03 AUDIO
TITLE "Para Ti"
PERFORMER "Marcela Mangabeira"
INDEX 01 00:00:00
FILE "04. Os Grilos (Crickets Sing For Ana Maria).wav" WAVE
TRACK 04 AUDIO
TITLE "Os Grilos (Crickets Sing For Ana Maria)"
PERFORMER "Marcela Mangabeira"
INDEX 01 00:00:00
FILE "05. Insensatez.wav" WAVE
TRACK 05 AUDIO
TITLE "Insensatez"
PERFORMER "Marcela Mangabeira"
INDEX 01 00:00:00
FILE "06. So Quis Voce.wav" WAVE
TRACK 06 AUDIO
TITLE "So Quis Voce"
PERFORMER "Marcela Mangabeira"
INDEX 01 00:00:00
FILE "07. Pro Menesca (P'ru Ze).wav" WAVE
TRACK 07 AUDIO
TITLE "Pro Menesca (P'ru Ze)"
PERFORMER "Marcela Mangabeira"
INDEX 01 00:00:00
FILE "08. Eu E A Brisa.wav" WAVE
TRACK 08 AUDIO
TITLE "Eu E A Brisa"
PERFORMER "Marcela Mangabeira"
INDEX 01 00:00:00
FILE "09. Pro Tom.wav" WAVE
TRACK 09 AUDIO
TITLE "Pro Tom"
PERFORMER "Marcela Mangabeira"
INDEX 01 00:00:00
FILE "10. A Ra.wav" WAVE
TRACK 10 AUDIO
TITLE "A Ra"
PERFORMER "Marcela Mangabeira"
INDEX 01 00:00:00
FILE "11. Voo Sobre O Horizonte.wav" WAVE
TRACK 11 AUDIO
TITLE "Voo Sobre O Horizonte"
PERFORMER "Marcela Mangabeira"
INDEX 01 00:00:00
FILE "12. So Danco Samba.wav" WAVE
TRACK 12 AUDIO
TITLE "So Danco Samba"
PERFORMER "Marcela Mangabeira"
INDEX 01 00:00:00
 
Audiocheck
18:52
368
Нет комментариев. Ваш будет первым!