Поиск

(Contemporary Jazz; World Fusion) Renaud Garcia-Fons - Alborea - 1995, FLAC (tracks+.cue) lossless

(Contemporary Jazz; World Fusion) Renaud Garcia-Fons - Alborea - 1995, FLAC (tracks+.cue) lossless
Треклист:
Renaud Garcia-Fons / Alborea
Жанр: Contemporary Jazz; World Fusion
Страна-производитель диска: Германия
Год издания диска: 1995
Издатель (лейбл): Enja Records
Номер по каталогу: ENJ-9057-2
Страна: Франция
Аудио кодек: FLAC (*.flac)
Тип рипа: tracks+.cue
Битрейт аудио: lossless
Продолжительность: 52:09
Источник (релизер): Компакт-диск (из собственной коллекции)
Наличие сканов в содержимом раздачи: да
Треклист:
01. Al Camaron (5:04)
02. Alborea (7:06)
03. Natgo (5:11)
04. Secret Zambra (4:48)
05. Eosine (3:45)
06. Gus's Smile (5:47)
07. Amadu (5:11)
08. Sacre Coeur (4:14)
09. Reu de Buci (4:17)
10. Fort Apache (4:06)
11. Tropea (2:40)
 
Лог создания рипа
Exact Audio Copy V0.99 prebeta 5 from 4. May 2009
EAC extraction logfile from 20. October 2010, 23:22
Renaud Garcia-Fons / Alborea
Used drive : Optiarc DVD RW AD-7700H Adapter: 0 ID: 1
Read mode : Secure
Utilize accurate stream : Yes
Defeat audio cache : Yes
Make use of C2 pointers : No
Read offset correction : 48
Overread into Lead-In and Lead-Out : No
Fill up missing offset samples with silence : Yes
Delete leading and trailing silent blocks : No
Null samples used in CRC calculations : Yes
Used interface : Native Win32 interface for Win NT & 2000
Gap handling : Appended to previous track
Used output format : User Defined Encoder
Selected bitrate : 768 kBit/s
Quality : High
Add ID3 tag : No
Command line compressor : C:\Program Files (x86)\Exact Audio Copy\FLAC\FLAC.EXE
Additional command line options : -8 -V -T "ARTIST=%a" -T "TITLE=%t" -T "ALBUM=%g" -T "DATE=%y" -T "TRACKNUMBER=%n" -T "GENRE=%m" -T "COMMENT=EAC FLAC -8" %s
TOC of the extracted CD
Track | Start | Length | Start sector | End sector
---------------------------------------------------------
1 | 0:00.30 | 5:07.12 | 30 | 23066
2 | 5:07.42 | 7:09.19 | 23067 | 55260
3 | 12:16.61 | 5:14.27 | 55261 | 78837
4 | 17:31.13 | 4:51.11 | 78838 | 100673
5 | 22:22.24 | 3:47.20 | 100674 | 117718
6 | 26:09.44 | 5:49.37 | 117719 | 143930
7 | 31:59.06 | 5:12.58 | 143931 | 167388
8 | 37:11.64 | 4:16.55 | 167389 | 186643
9 | 41:28.44 | 4:19.55 | 186644 | 206123
10 | 45:48.24 | 4:09.71 | 206124 | 224869
11 | 49:58.20 | 2:39.26 | 224870 | 236820
Track 1
Filename C:\Users\sony\Music\Rutracker_Seeds\01 - Al Camaron.wav
Pre-gap length 0:00:02.30
Peak level 100.0 %
Track quality 99.9 %
Test CRC BA3CD354
Copy CRC BA3CD354
Accurately ripped (confidence 8) [03F673C3]
Copy OK
Track 2
Filename C:\Users\sony\Music\Rutracker_Seeds\02 - Alborea.wav
Peak level 99.8 %
Track quality 100.0 %
Test CRC 0E9EEC5A
Copy CRC 0E9EEC5A
Accurately ripped (confidence 8) [94B728CE]
Copy OK
Track 3
Filename C:\Users\sony\Music\Rutracker_Seeds\03 - Natgo.wav
Peak level 93.6 %
Track quality 100.0 %
Test CRC B9DA7111
Copy CRC B9DA7111
Accurately ripped (confidence 8) [4D3E8FA8]
Copy OK
Track 4
Filename C:\Users\sony\Music\Rutracker_Seeds\04 - Secret Zambra.wav
Peak level 97.5 %
Track quality 100.0 %
Test CRC 7440D5CE
Copy CRC 7440D5CE
Accurately ripped (confidence 8) [F5EEDE2F]
Copy OK
Track 5
Filename C:\Users\sony\Music\Rutracker_Seeds\05 - Eosine.wav
Peak level 98.0 %
Track quality 100.0 %
Test CRC F6B85969
Copy CRC F6B85969
Accurately ripped (confidence 7) [C60862E3]
Copy OK
Track 6
Filename C:\Users\sony\Music\Rutracker_Seeds\06 - Gus's Smile.wav
Peak level 95.6 %
Track quality 100.0 %
Test CRC 61D6284F
Copy CRC 61D6284F
Accurately ripped (confidence 8) [287A4A13]
Copy OK
Track 7
Filename C:\Users\sony\Music\Rutracker_Seeds\07 - Amadu.wav
Peak level 99.4 %
Track quality 100.0 %
Test CRC B3E68A82
Copy CRC B3E68A82
Accurately ripped (confidence 8) [EBC4693D]
Copy OK
Track 8
Filename C:\Users\sony\Music\Rutracker_Seeds\08 - Sacre Coeur.wav
Peak level 97.1 %
Track quality 100.0 %
Test CRC 9F270D1E
Copy CRC 9F270D1E
Accurately ripped (confidence 8) [5D60B0D5]
Copy OK
Track 9
Filename C:\Users\sony\Music\Rutracker_Seeds\09 - Rue de buci.wav
Peak level 98.5 %
Track quality 100.0 %
Test CRC 7E93B6A9
Copy CRC 7E93B6A9
Accurately ripped (confidence 8) [F8955230]
Copy OK
Track 10
Filename C:\Users\sony\Music\Rutracker_Seeds\10 - Fort Apache.wav
Peak level 97.0 %
Track quality 100.0 %
Test CRC CD179FC0
Copy CRC CD179FC0
Accurately ripped (confidence 8) [11584BEC]
Copy OK
Track 11
Filename C:\Users\sony\Music\Rutracker_Seeds\11 - Tropea.wav
Peak level 67.0 %
Track quality 100.0 %
Test CRC E6F7E9EE
Copy CRC E6F7E9EE
Accurately ripped (confidence 8) [2411A591]
Copy OK
All tracks accurately ripped
No errors occurred
End of status report
 
Содержание индексной карты (.CUE)
REM GENRE Jazz
REM DATE 1995
REM DISCID 7A0C550B
REM COMMENT "ExactAudioCopy v0.99pb5"
PERFORMER "Renaud Garcia-Fons"
TITLE "Alborea"
FILE "01 - Al Camaron.wav" WAVE
TRACK 01 AUDIO
TITLE "Al Camaron"
PERFORMER "Renaud Garcia-Fons"
PREGAP 00:00:30
INDEX 01 00:00:00
FILE "02 - Alborea.wav" WAVE
TRACK 02 AUDIO
TITLE "Alborea"
PERFORMER "Renaud Garcia-Fons"
INDEX 01 00:00:00
FILE "03 - Natgo.wav" WAVE
TRACK 03 AUDIO
TITLE "Natgo"
PERFORMER "Renaud Garcia-Fons"
INDEX 01 00:00:00
FILE "04 - Secret Zambra.wav" WAVE
TRACK 04 AUDIO
TITLE "Secret Zambra"
PERFORMER "Renaud Garcia-Fons"
INDEX 01 00:00:00
FILE "05 - Eosine.wav" WAVE
TRACK 05 AUDIO
TITLE "Eosine"
PERFORMER "Renaud Garcia-Fons"
INDEX 01 00:00:00
FILE "06 - Gus's Smile.wav" WAVE
TRACK 06 AUDIO
TITLE "Gus's Smile"
PERFORMER "Renaud Garcia-Fons"
INDEX 01 00:00:00
FILE "07 - Amadu.wav" WAVE
TRACK 07 AUDIO
TITLE "Amadu"
PERFORMER "Renaud Garcia-Fons"
INDEX 01 00:00:00
FILE "08 - Sacre Coeur.wav" WAVE
TRACK 08 AUDIO
TITLE "Sacre Coeur"
PERFORMER "Renaud Garcia-Fons"
INDEX 01 00:00:00
FILE "09 - Rue de buci.wav" WAVE
TRACK 09 AUDIO
TITLE "Rue de buci"
PERFORMER "Renaud Garcia-Fons"
INDEX 01 00:00:00
FILE "10 - Fort Apache.wav" WAVE
TRACK 10 AUDIO
TITLE "Fort Apache"
PERFORMER "Renaud Garcia-Fons"
INDEX 01 00:00:00
FILE "11 - Tropea.wav" WAVE
TRACK 11 AUDIO
TITLE "Tropea"
PERFORMER "Renaud Garcia-Fons"
INDEX 01 00:00:00
 
Об исполнителе (группе)
Как его часто называют "Паганини контрабаса," Renaud Garcia-Fons - это композитор и исполнитель (на пятиструнной бас-гитаре), на которого оказал огромное влияние великий контрабасист Франсуа Раббат (François Rabbath).
Garcia-Fons начал серьезно заниматься музыкой в раннем возрасте. В пятилетнем возрасте он начал с пианино, в восемь - перешел к классической гитаре в восемь, в юности увлекался роком, и, в конце концов, с 16-тилетнего возраста остановился на бас-гитаре.
Garcia-Fons живет в Париже и гастролирует по Германии и Европе, постоянно выступая на различных фестивалях.
В 1987 году он стал членом Orchestre de Contrebasses, в котором трудился на протяжении 6-ти лет. В то же самое время Garcia-Fons сотрудничает с Orchestre National de Jazz.
В начале 90-х Garcia-Fons начинает работать с лейблом ENJA Records и в 1996 дебютирует сольным альбомом Légendes. Практически сразу выходит в свет следующий альбом Alboreá, на котором впервые был представлен его квартет, в котором помимо Garcia-Fons были следующие музыканты: Jean-Louis Matinier на аккордеоне, Jacques Mahieux на барабанах, и Yves Torchinskyна басу.
Третий альбом, написанный Garcia-Fons - Oriental Bass – вышел в свет в 1998 году.
Затем он сотрудничает с аккордеонистом Jean-Louis Matinier на альбоме Fuera.
Музыка Garcia-Fons является уникальным сплавом испанской цыганской музыки и глобального джаза, приправленного, в свою очередь, музыкой Индии, Греции, Африки, фламенко, Латинской Америки, танго и new musette.
На многих работах Garcia-Fons аккомпанирует себе на различных инструментах, в том числе на гитаре, лютне, derbouka, флейтах, тромбоне и аккордеоне.
 
Об альбоме (сборнике)
Review by Kurt Keefner
Развитию европейского джаза характерно движение в нескольких неожиданных направлениях. Garcia-Fons – мастер контрабаса - является лидером французского квартета, в который помимо него входят другой контрабасист, аккордеонист и барабанщик. При такой структуре Garcia-Fons получает возможность использовать огромный диапазон контрабаса для ведения мелодических линий, в то время как другой басист сосредоточен на исполнении традиционных басовых партий.
Наиболее близким из великих музыкантов к творчеству Garcia-Fons видится Астор Пьяццолла, и действительно Alboreá содержит одно танго, названное анаграммой - "Natgo". Garcia-Fons также использует источники музыки из другого мира, например, мавританском звук в треке " Secret Zambra". Кроме того, многие из треков - что в общем-то не удивительно – кажутся созданными в стилистике French musette.
Несмотря на то, что Garcia-Fons мог бы назвать главным вдохновителем своего творчества Чарли Мингуса, он временами звучит так, как если бы его реальным наставником был Андре Превин, причем не столько как джазовый музыкант, а скорее как композитор музыки к фильмам.
Некоторые из треков альбома Alboreá, подобно титульному треку, очень "протяженные" и наполнены драматизмом. Однако, главное шоу, конечно, заключено в басовых партиях. Всего один пример для наглядности: на треке "Amadu" вы думаете, что музыканты используют электрогитары с дисторшн-эффектами. Это продолжается какое-то время, но затем вы понимаете, что все эти звуки извлекает Garcia-Fons, используя как щипковую, так и смычковую техники игры на контрабасе.
Каждый слушатель этой пластинки, будь он из джазового мира либо интересующимся жанром World Music, найдет в этой настоящей и страстной музыке то, что «зацепит» его всерьез и надолго.
 
Состав
Renaud Garcia-Fons - double bass
Jean-Louis Matinier – accordion
Yves Torchinsky - double bass
Jacques Mahieux – drums
18:53
480
Нет комментариев. Ваш будет первым!