Поиск

(Latin Jazz, World Fusion, Cuban Jazz, Cuban Traditions) Juan Pablo Torres - A Life In Music - 2005, FLAC (image+.cue) lossless

Треклист:
Juan Pablo Torres / A Life In Music
Жанр: Latin Jazz, World Fusion, Cuban Jazz, Cuban Traditions
Страна-производитель диска: Russia
Год издания диска: 2005
Издатель (лейбл): Universal Latino/ Par Media Music
Номер по каталогу: Universal Latino-360695
Страна: Cuba
Аудио кодек: FLAC (*.flac)
Тип рипа: image+.cue
Битрейт аудио: lossless
Продолжительность: 01:19:40
Источник (релизер): Рип с собственного диска
Наличие сканов в содержимом раздачи: да
Треклист:
1 Los Herederos Intro (Jimenez, Torres) 1:46
2 Dulce Coco (Torres) 3:49
3 Rompe Saraguey (Torres) 4:13
4 Volare (Modugno) 5:39
5 Candela Al Jarro (Torres) 4:47
6 Rumba Pa' los Trombones (Torres) 6:01
7 Rhapsody in Blue (Gershwin, Gershwin) 4:28
8 Ajiaco (Torres) 5:34
9 Dame un Chance (Jimenez) 5:14
10 Torres and Turre (Torres) 8:49
11 Perfidia (Sentis, Tzipine) 4:58
12 Quiero un Sombrero (Cardenas) 5:30
13 Zun Zun Babae (Santeiro) 5:16
14 Comparsas Mix (Torres) 3:44
15 A Puerto Padre (Salvador) 7:59
16 Coda: Los Herederos (Jimenez, Torres) 1:46
 
Лог создания рипа
Exact Audio Copy V0.99 prebeta 5 from 4. May 2009
EAC extraction logfile from 27. October 2010, 8:42
Juan Pablo Torres / A Life In Music
Used drive : Optiarc DVD RW AD-7200S Adapter: 3 ID: 0
Read mode : Secure
Utilize accurate stream : Yes
Defeat audio cache : Yes
Make use of C2 pointers : No
Read offset correction : 48
Overread into Lead-In and Lead-Out : No
Fill up missing offset samples with silence : Yes
Delete leading and trailing silent blocks : No
Null samples used in CRC calculations : Yes
Used interface : Installed external ASPI interface
Used output format : User Defined Encoder
Selected bitrate : 128 kBit/s
Quality : High
Add ID3 tag : No
Command line compressor : C:\Program Files\Exact Audio Copy\Flac\flac.exe
Additional command line options : -8 -V %s
TOC of the extracted CD
Track | Start | Length | Start sector | End sector
---------------------------------------------------------
1 | 0:00.00 | 1:46.32 | 0 | 7981
2 | 1:46.32 | 3:49.70 | 7982 | 25226
3 | 5:36.27 | 4:13.61 | 25227 | 44262
4 | 9:50.13 | 5:39.27 | 44263 | 69714
5 | 15:29.40 | 4:47.16 | 69715 | 91255
6 | 20:16.56 | 6:01.28 | 91256 | 118358
7 | 26:18.09 | 4:28.17 | 118359 | 138475
8 | 30:46.26 | 5:34.70 | 138476 | 163595
9 | 36:21.21 | 5:14.09 | 163596 | 187154
10 | 41:35.30 | 8:49.15 | 187155 | 226844
11 | 50:24.45 | 4:58.31 | 226845 | 249225
12 | 55:23.01 | 5:30.16 | 249226 | 273991
13 | 60:53.17 | 5:16.03 | 273992 | 297694
14 | 66:09.20 | 3:44.21 | 297695 | 314515
15 | 69:53.41 | 7:59.38 | 314516 | 350478
16 | 77:53.04 | 1:46.39 | 350479 | 358467
Range status and errors
Selected range
Filename E:\Music\Juan Pablo Torres - A Life In Music (2005)\Juan Pablo Torres - A Life In Music.wav
Peak level 99.8 %
Range quality 100.0 %
Test CRC C36500D0
Copy CRC C36500D0
Copy OK
No errors occurred
AccurateRip summary
Track 1 not present in database
Track 2 not present in database
Track 3 not present in database
Track 4 not present in database
Track 5 not present in database
Track 6 not present in database
Track 7 not present in database
Track 8 not present in database
Track 9 not present in database
Track 10 not present in database
Track 11 not present in database
Track 12 not present in database
Track 13 not present in database
Track 14 not present in database
Track 15 not present in database
Track 16 not present in database
None of the tracks are present in the AccurateRip database
End of status report
 
Об альбоме (сборнике)
Review by Stewart Mason AMG
Released very shortly after the Latin jazz trombonist's death in the spring of 2005, A Life in Music is a solid overview of Juan Pablo Torres' shortened career. A Cuban exile whose career stretched back to the days of the great Cuban dance bands, Torres didn't stay in one place stylistically after he left his homeland. The 16 tracks here, bracketed by the modern jazz solo "Los Herederos," encompass standards ranging from "Volare" and "Perfidia" to an Afro-Cuban re-imagination of "Rhapsody in Blue" that utterly transforms the song. Torres also wrote originals in a variety of popular dance styles, always sure to include solo showcases for his bandmates as well as himself, as on the lengthy groove workout "Torres and Turre." Although a single album doesn't do justice to this underrated talent, A Life in Music makes for a fine introduction.
 
Состав
Guest Stars:
Chucho Valdes, Steve Turre, Tony Perez, Generoso Jimenez, Issac Delgado, Aramis Galindo, Israel Kantor, Tata Guines, Pancho Amat, Ruben Gonzalez Jr., Pio Leiva, Ibrahim Ferrer and many more.
17:52
298
Нет комментариев. Ваш будет первым!