Поиск

(Jazz, Blues, Folk, World, Afghan music) [CD] Larry Porter - Silk Road Blues - 2010, FLAC (tracks+.cue), lossless

(Jazz, Blues, Folk, World, Afghan music) [CD] Larry Porter - Silk Road Blues - 2010, FLAC (tracks+.cue), lossless
Треклист:
Larry Porter / Silk Road Blues
Жанр: Jazz, Blues, Folk, World, Afghan music
Носитель: CD
Страна-производитель диска (релиза): Germany
Год издания: 2010
Издатель (лейбл): Flowfish Records
Номер по каталогу: FF0018
Страна исполнителя (группы): USA
Аудиокодек: FLAC (*.flac)
Тип рипа: tracks+.cue
Битрейт аудио: lossless
Продолжительность: 1:03:24
Источник (релизер): рип собственный
Наличие сканов в содержимом раздачи: да
Треклист:
01. Raga 'n Roll 5:33
02. Dancing Shadows 4:55
03. Silk Road Blues 4:34
04. Moodscapes 6:01
05. Todi In The Groove 5:48
06. The Loop Of Love 5:07
07. Trance Porter 5:43
08. Gahiz 5:09
09. Rock Riffle 3:55
10. That Certain Something 6:02
11. Zephyros 6:17
12. War And Peace 4:20
 
Лог создания рипа
Exact Audio Copy V1.1 from 23. June 2015
EAC extraction logfile from 16. August 2016, 20:27
Larry Porter / Silk Road Blues
Used drive : hp DVD-RAM GH80N Adapter: 1 ID: 0
Read mode : Secure
Utilize accurate stream : Yes
Defeat audio cache : Yes
Make use of C2 pointers : No
Read offset correction : 667
Overread into Lead-In and Lead-Out : No
Fill up missing offset samples with silence : Yes
Delete leading and trailing silent blocks : No
Null samples used in CRC calculations : Yes
Used interface : Native Win32 interface for Win NT & 2000
Gap handling : Appended to previous track
Used output format : User Defined Encoder
Selected bitrate : 1024 kBit/s
Quality : High
Add ID3 tag : No
Command line compressor : C:\Program Files\Exact Audio Copy\FLAC\FLAC.EXE
Additional command line options : -8 -e -V -T "ARTIST=%artist%" -T "TITLE=%title%" -T "ALBUM=%albumtitle%" -T "DATE=%year%" -T "TRACKNUMBER=%tracknr%" -T "GENRE=%genre%" -T "PERFORMER=%albuminterpret%" -T "COMPOSER=%composer%" %haslyrics%--tag-from-file=LYRICS="%lyricsfile%"%haslyrics% -T "ALBUMARTIST=%albumartist%" -T "DISCNUMBER=%cdnumber%" -T "TOTALDISCS=%totalcds%" -T "TOTALTRACKS=%numtracks%" -T "COMMENT=%comment%" %source% -o %dest%
TOC of the extracted CD
Track | Start | Length | Start sector | End sector
---------------------------------------------------------
1 | 0:00.00 | 5:33.31 | 0 | 25005
2 | 5:33.31 | 4:55.24 | 25006 | 47154
3 | 10:28.55 | 4:34.66 | 47155 | 67770
4 | 15:03.46 | 6:01.41 | 67771 | 94886
5 | 21:05.12 | 5:48.51 | 94887 | 121037
6 | 26:53.63 | 5:07.37 | 121038 | 144099
7 | 32:01.25 | 5:43.33 | 144100 | 169857
8 | 37:44.58 | 5:09.16 | 169858 | 193048
9 | 42:53.74 | 3:55.23 | 193049 | 210696
10 | 46:49.22 | 6:02.57 | 210697 | 237903
11 | 52:52.04 | 6:17.36 | 237904 | 266214
12 | 59:09.40 | 4:20.59 | 266215 | 285773
Track 1
Filename C:\Sounds\Larry Porter - Silk Road Blues (2010)[FLAC]\01 - Raga 'n Roll.wav
Pre-gap length 0:00:02.00
Peak level 91.2 %
Extraction speed 2.0 X
Track quality 100.0 %
Test CRC 6A5184FD
Copy CRC 6A5184FD
Accurately ripped (confidence 1) [63DFB771] (AR v1)
Copy OK
Track 2
Filename C:\Sounds\Larry Porter - Silk Road Blues (2010)[FLAC]\02 - Dancing Shadows.wav
Pre-gap length 0:00:01.00
Peak level 98.7 %
Extraction speed 2.2 X
Track quality 100.0 %
Test CRC 4A422E70
Copy CRC 4A422E70
Accurately ripped (confidence 1) [89E18196] (AR v1)
Copy OK
Track 3
Filename C:\Sounds\Larry Porter - Silk Road Blues (2010)[FLAC]\03 - Silk Road Blues.wav
Pre-gap length 0:00:00.98
Peak level 86.1 %
Extraction speed 2.1 X
Track quality 99.9 %
Test CRC 5272F0B8
Copy CRC 5272F0B8
Accurately ripped (confidence 1) [7896ECF9] (AR v1)
Copy OK
Track 4
Filename C:\Sounds\Larry Porter - Silk Road Blues (2010)[FLAC]\04 - Moodscapes.wav
Pre-gap length 0:00:00.98
Peak level 86.1 %
Extraction speed 2.4 X
Track quality 99.9 %
Test CRC 652D4228
Copy CRC 652D4228
Accurately ripped (confidence 1) [F1B4BB79] (AR v1)
Copy OK
Track 5
Filename C:\Sounds\Larry Porter - Silk Road Blues (2010)[FLAC]\05 - Todi In The Groove.wav
Pre-gap length 0:00:01.17
Peak level 86.1 %
Extraction speed 2.9 X
Track quality 100.0 %
Test CRC BAD2229D
Copy CRC BAD2229D
Accurately ripped (confidence 1) [41382D53] (AR v1)
Copy OK
Track 6
Filename C:\Sounds\Larry Porter - Silk Road Blues (2010)[FLAC]\06 - The Loop Of Love.wav
Pre-gap length 0:00:00.98
Peak level 96.6 %
Extraction speed 3.1 X
Track quality 100.0 %
Test CRC 4EEDC65F
Copy CRC 4EEDC65F
Accurately ripped (confidence 1) [B872F6EB] (AR v1)
Copy OK
Track 7
Filename C:\Sounds\Larry Porter - Silk Road Blues (2010)[FLAC]\07 - Trance Porter.wav
Pre-gap length 0:00:02.08
Peak level 96.6 %
Extraction speed 3.3 X
Track quality 100.0 %
Test CRC FEBE3DBE
Copy CRC FEBE3DBE
Accurately ripped (confidence 1) [FD31FA20] (AR v1)
Copy OK
Track 8
Filename C:\Sounds\Larry Porter - Silk Road Blues (2010)[FLAC]\08 - Gahiz.wav
Pre-gap length 0:00:00.98
Peak level 96.6 %
Extraction speed 3.4 X
Track quality 100.0 %
Test CRC 48A34B39
Copy CRC 48A34B39
Accurately ripped (confidence 1) [A95BF799] (AR v1)
Copy OK
Track 9
Filename C:\Sounds\Larry Porter - Silk Road Blues (2010)[FLAC]\09 - Rock Riffle.wav
Pre-gap length 0:00:00.98
Peak level 96.6 %
Extraction speed 3.3 X
Track quality 100.0 %
Test CRC 78988C34
Copy CRC 78988C34
Accurately ripped (confidence 1) [C8E1F576] (AR v1)
Copy OK
Track 10
Filename C:\Sounds\Larry Porter - Silk Road Blues (2010)[FLAC]\10 - That Certain Something.wav
Pre-gap length 0:00:01.84
Peak level 89.5 %
Extraction speed 3.7 X
Track quality 100.0 %
Test CRC CDE6B029
Copy CRC CDE6B029
Accurately ripped (confidence 1) [81223131] (AR v1)
Copy OK
Track 11
Filename C:\Sounds\Larry Porter - Silk Road Blues (2010)[FLAC]\11 - Zephyros.wav
Pre-gap length 0:00:00.98
Peak level 96.6 %
Extraction speed 3.6 X
Track quality 99.9 %
Test CRC 5D59AAFF
Copy CRC 5D59AAFF
Accurately ripped (confidence 1) [6F034E12] (AR v1)
Copy OK
Track 12
Filename C:\Sounds\Larry Porter - Silk Road Blues (2010)[FLAC]\12 - War And Peace.wav
Pre-gap length 0:00:00.57
Peak level 96.6 %
Extraction speed 3.9 X
Track quality 100.0 %
Test CRC F96BA8E9
Copy CRC F96BA8E9
Accurately ripped (confidence 1) [756400E5] (AR v1)
Copy OK
All tracks accurately ripped
No errors occurred
End of status report
---- CUETools DB Plugin V2.1.6
[CTDB TOCID: JrkmON4e13IBzM2Ohf.u5RIiBx4-] found
Submit result: JrkmON4e13IBzM2Ohf.u5RIiBx4- has been confirmed
Track | CTDB Status
1 | (3/3) Accurately ripped
2 | (3/3) Accurately ripped
3 | (3/3) Accurately ripped
4 | (3/3) Accurately ripped
5 | (3/3) Accurately ripped
6 | (3/3) Accurately ripped
7 | (3/3) Accurately ripped
8 | (3/3) Accurately ripped
9 | (3/3) Accurately ripped
10 | (3/3) Accurately ripped
11 | (3/3) Accurately ripped
12 | (3/3) Accurately ripped
==== Log checksum 281034B814440467FB7488C78F508D0D3E8C33FA44227611521C95EE4F2FF011 ====
 
Содержание индексной карты (.CUE)
REM GENRE Ethno-Jazz
REM DATE 2010
REM DISCID 9C0EE20C
REM COMMENT "ExactAudioCopy v1.1"
PERFORMER "Larry Porter"
TITLE "Silk Road Blues"
FILE "01 - Raga 'n Roll.wav" WAVE
TRACK 01 AUDIO
TITLE "Raga 'n Roll"
PERFORMER "Larry Porter"
ISRC DEKQ81000114
FLAGS DCP
INDEX 01 00:00:00
TRACK 02 AUDIO
TITLE "Dancing Shadows"
PERFORMER "Larry Porter"
ISRC DEKQ81000115
FLAGS DCP
INDEX 00 05:32:31
FILE "02 - Dancing Shadows.wav" WAVE
INDEX 01 00:00:00
TRACK 03 AUDIO
TITLE "Silk Road Blues"
PERFORMER "Larry Porter"
ISRC DEKQ81000116
FLAGS DCP
INDEX 00 04:54:25
FILE "03 - Silk Road Blues.wav" WAVE
INDEX 01 00:00:00
TRACK 04 AUDIO
TITLE "Moodscapes"
PERFORMER "Larry Porter"
ISRC DEKQ81000117
FLAGS DCP
INDEX 00 04:33:67
FILE "04 - Moodscapes.wav" WAVE
INDEX 01 00:00:00
TRACK 05 AUDIO
TITLE "Todi In The Groove"
PERFORMER "Larry Porter"
ISRC DEKQ81000118
FLAGS DCP
INDEX 00 06:00:28
FILE "05 - Todi In The Groove.wav" WAVE
INDEX 01 00:00:00
TRACK 06 AUDIO
TITLE "The Loop Of Love"
PERFORMER "Larry Porter"
ISRC DEKQ81000119
FLAGS DCP
INDEX 00 05:47:52
FILE "06 - The Loop Of Love.wav" WAVE
INDEX 01 00:00:00
TRACK 07 AUDIO
TITLE "Trance Porter"
PERFORMER "Larry Porter"
ISRC DEKQ81000120
FLAGS DCP
INDEX 00 05:05:31
FILE "07 - Trance Porter.wav" WAVE
INDEX 01 00:00:00
TRACK 08 AUDIO
TITLE "Gahiz"
PERFORMER "Larry Porter"
ISRC DEKQ81000121
FLAGS DCP
INDEX 00 05:42:34
FILE "08 - Gahiz.wav" WAVE
INDEX 01 00:00:00
TRACK 09 AUDIO
TITLE "Rock Riffle"
PERFORMER "Larry Porter"
ISRC DEKQ81000122
FLAGS DCP
INDEX 00 05:08:17
FILE "09 - Rock Riffle.wav" WAVE
INDEX 01 00:00:00
TRACK 10 AUDIO
TITLE "That Certain Something"
PERFORMER "Larry Porter"
ISRC DEKQ81000123
FLAGS DCP
INDEX 00 03:53:35
FILE "10 - That Certain Something.wav" WAVE
INDEX 01 00:00:00
TRACK 11 AUDIO
TITLE "Zephyros"
PERFORMER "Larry Porter"
ISRC DEKQ81000124
FLAGS DCP
INDEX 00 06:01:58
FILE "11 - Zephyros.wav" WAVE
INDEX 01 00:00:00
TRACK 12 AUDIO
TITLE "War And Peace"
PERFORMER "Larry Porter"
ISRC DEKQ81000125
FLAGS DCP
INDEX 00 06:16:68
FILE "12 - War And Peace.wav" WAVE
INDEX 01 00:00:00
 
Об исполнителе (группе)
Larry Porter, the famous american piano player was born in Cleveland in 1951. Since 1977 he lives in New York and he works as a jazz pianist and composer. Porter is also famous for his musical work in the field of Indian music: he plays the rebab and the sarode. Porter has been touring the world with the renowed jazz trompet player Chet Baker and he took part in all major European jazz festivals including 'New Morning' in Paris. He worked with such musical celebrities as Hannibal Marvin Peterson, Conexion Latina, Benny Bailey, Don Menza, Art Farmer and Archie Shepp. Larry Porter (фортепиано USA) джазовый квартет. оригинальные композиции и стандарты. http://eastwestmusic.net
Larry Porter is an adept in the music of both East and West. As a jazz pianist, his playing pays homage to the history of the music, from ragtime through post-bop and into the future. As a rebab player, Porter has been hailed as "...without a doubt one of the best of his generation" by the US-based Afghan magazine, Lemar-Aftaab (read interview). In both spheres Porter's compositions, renditions, and improvisations portray multi-dimensional visionary soundscapes conveying the depth and breadth of emotions that encompass the human experience. He is also involved in projects integrating aspects of jazz and other Western music forms with Afghan, Central Asian, and Indian music. On his arrival in Afghanistan during his 1976 journey through Asia, Larry was captivated by the music of "...a land where music still truly reflects the soul of the people". He was particularly entranced by the rebab with its mellow resonance and contrasting percussive quality. The rebab is a short-necked lute with 18 strings. It is a traditional instrument of Afghanistan and the surrounding area, and is the precursor of the sarod. In Persian, the first vowel is not written, giving rise to a variety of Western spellings, including rabab, robab, rubab, and rhubab. The name stems from ru = soul, and bab = gateway - the instrument and its music are truly a gateway to the soul. During his stay in Afghanistan, Larry was the student of Ustad Mohammed Omar, acknowledged as the greatest rebab master of his time and the foremost proponent of the Afghan classical style. Over the years Porter has developed a unique style which combines folk traditions with elements of classical Afghan and Indian improvisational styles. His repertoire includes Afghan folk songs, Hindi film tunes, Pakistani ghazals, and classical Afghan and Indian compositions, as well as original pieces composed in the Afghan style. Larry Porter's jazz credentials are impeccable. Porter began taking piano lessons at the age of six. His studies included stints at Eastman School of Music and Berklee College of Music. Since then he has lived and worked in New York City, Munich, Barcelona, and Berlin, where he currently lives. Over the years he has played with such major figures in the music as Thad Jones and Archie Shepp, including extended periods with Chet Baker and Art Farmer. Porter has also had wide-ranging work with such world-class singers as Sheila Jordan and Mark Murphy. He has made numerous records as a side-man and under his own name. Larry has successfully lead trios and quartets, including the legendary Porter - Praskin Quartet. He excels in composing and arranging for such small groups, but his writing range extends to include vocal and chamber music, along with works for solo piano and big band. He is also an accomplished lyricist, integrating appropriately affective words into his expressive compositions. The pieces presented on this website are a representative cross-section of three decades of resonant multiform creativity. They exemplify the exquisite depth and range of Porter's writing and playing in solo piano, duo, trio, quartet, big band, formats. Larry Porter is striving to create a sort of amalgam of East and West. His goal has been to "...combine everything I know about jazz and Western music with everything I know about Afghan, Central Asian and Indian music. It is of utmost importance to me that an actual transformation takes place in this fusion and not just a layering. I hear this music as having its own integrity different than the mere sum of its parts." This website offers music in Flash Player streaming audio format, thus giving the listener a true sense of the artist. The visitor can listen to performances of a master musician whose musical career spans some thirty years and three continents.
 
Об альбоме (сборнике)
Produced by Larry Porter
Recorded & mixed by Rainer Robben at Audiocue Tnlabor, Berlin
Cover photo by Luke Powell
Inside photo by Saskia Pavek
https://www.discogs.com/Larry-Porter-Silk-Road-Blues/release/2552396
 
Состав
Larry Porter - rebab, piano, tamboura
Scott White - bass (1,3,4,5,6,8,9,10,11)
Heinrich Köbberling - drums (1,4,6,9,10,11)
Solayman Alizo - tabla (3,5,8)
David Beecroft - soprano & tenor saxes (3,4,6,11)
Stefan Jezierski - french horn (6)
Barbara Sadowski - violin (6)
Elena Drath - flute (8)
All compositions and Arrangements by Larry Porter
21:58
310
Нет комментариев. Ваш будет первым!