Поиск

(Ethnic Jazz, Classical) [CD] The Kazu Matsui Project (feat.Keiko Matsui on piano) - Tribal Schubert - 1999, FLAC (image+.cue), lossless

(Ethnic Jazz, Classical) [CD] The Kazu Matsui Project (feat.Keiko Matsui on piano) - Tribal Schubert - 1999, FLAC (image+.cue), lossless
Треклист:
The Kazu Matsui Project (feat.Keiko Matsui on piano) / Tribal Schubert
Жанр: Ethnic Jazz, Classical
Носитель: CD
Страна-производитель диска (релиза): USA
Год издания: 1999
Издатель (лейбл): Countdown
Номер по каталогу: 17791-2
Страна исполнителя (группы): Japan
Аудиокодек: FLAC (*.flac)
Тип рипа: image+.cue
Битрейт аудио: lossless
Продолжительность: 43:01
Источник (релизер): my disc
Наличие сканов в содержимом раздачи: да
Треклист:
01. Tribal Lullaby [0:04:22.15]
02. Forest Trout [0:03:38.22]
03. With Lotus Flower [0:04:23.08]
04. Wild Rose of The Night [0:04:01.55]
05. Tribal Schubert [0:04:56.37]
06. At the Eastern Rim [0:04:31.00]
07. North Sea Fire [0:04:03.13]
08. Against the Wind [0:03:56.00]
09. This Empty Sky [0:05:09.62]
10. Steps Into the Air [0:03:59.13]
 
Лог создания рипа
Exact Audio Copy V1.0 beta 3 from 29. August 2011
Отчёт EAC об извлечении, выполненном 30. августа 2016, 12:25
The Kazu Matsui Project / Tribal Schubert
Дисковод: TSSTcorpCDDVDW SH-224DB Adapter: 1 ID: 0
Режим чтения : Достоверность
Использование точного потока : Да
Отключение кэша аудио : Да
Использование указателей C2 : Нет
Коррекция смещения при чтении : 6
Способность читать области Lead-in и Lead-out : Нет
Заполнение пропущенных сэмплов тишиной : Да
Удаление блоков с тишиной в начале и конце : Нет
При вычислениях CRC использовались нулевые сэмплы : Да
Интерфейс : Встроенный Win32-интерфейс для Win NT/2000
Выходной формат : Пользовательский кодировщик
Выбранный битрейт : 768 kBit/s
Качество : Высокий
Добавление ID3-тега : Нет
Утилита сжатия : C:\Program Files\Exact Audio Copy\Flac\flac.exe
Дополнительные параметры : -V -8 -T "Date=%year%" -T "Genre=%genre%" %source%
TOC извлечённого CD
Трек | Старт | Длительность | Начальный сектор | Конечный сектор
---------------------------------------------------------------------
1 | 0:00.00 | 4:22.15 | 0 | 19664
2 | 4:22.15 | 3:38.22 | 19665 | 36036
3 | 8:00.37 | 4:23.08 | 36037 | 55769
4 | 12:23.45 | 4:01.55 | 55770 | 73899
5 | 16:25.25 | 4:56.37 | 73900 | 96136
6 | 21:21.62 | 4:31.00 | 96137 | 116461
7 | 25:52.62 | 4:03.13 | 116462 | 134699
8 | 29:56.00 | 3:56.00 | 134700 | 152399
9 | 33:52.00 | 5:09.62 | 152400 | 175636
10 | 39:01.62 | 3:59.13 | 175637 | 193574
Характеристики диапазона извлечения и сообщения об ошибках
Выбранный диапазон
Имя файла D:\lo$$le$$\K.Matsui project'99\The Kazu Matsui Project - Tribal Schubert.wav
Пиковый уровень 100.0 %
Скорость извлечения 7.1 X
Качество диапазона 99.9 %
CRC теста 2AF0CF9C
CRC копии 2AF0CF9C
Копирование... OK
Ошибок не произошло
Конец отчёта
==== Контрольная сумма отчёта B190F5380CAD61CEF37F207A23F6345CC6897663E3E12173D6E315BA96405BD0 ====
 
Об исполнителе (группе)
Казу Матсуи (Kazu Matsui) - известный исполнитель на бамбуковой флейте, лидер группы "The Kazu Matsui Project", муж джазовой пианистки Кеико Матсуи (Keiko Matsui).
 
Состав
Keiko Matsui:acoustic piano
Kazu Matsui:shakuhachi (bamboo flute)
Hajime Hyakkoku:keyboards and rhythm programming
21:58
263
Нет комментариев. Ваш будет первым!