Поиск

(Afro-Cuban Jazz, Cool, Latin Jazz) [CD] Cal Tjader - The Grace Cathedral Concert - 1976 (1997), FLAC (tracks+.cue), lossless

(Afro-Cuban Jazz, Cool, Latin Jazz) [CD] Cal Tjader - The Grace Cathedral Concert - 1976 (1997), FLAC (tracks+.cue), lossless
Cal Tjader - The Grace Cathedral Concert
Жанр: Afro-Cuban Jazz, Cool, Latin Jazz
Носитель: CD
Страна-производитель диска (релиза): США
Год издания: 1997
Издатель (лейбл): Fantasy
Номер по каталогу: FCD-9677-2
Аудиокодек: FLAC (*.flac)
Тип рипа: tracks+.cue
Битрейт аудио: lossless
Продолжительность: 44:06
Источник (релизер): kctrojan (what)
Наличие сканов в содержимом раздачи: да
Треклист:
01. I Showed Them (Tjader) - 11:24
02. Bluesology (Jackson) - 10:24
03. Black Orpheus Medley: Manha de Carnaval/Samba de Orfeu (Bonfa-Maria) - 14:55
04. Body and Soul (Heyman-Sour-Eyton-Green) - 5:44
05. Theme (Tjader) - 1:39
Состав:
Cal Tjader - vibes, timbales
Lonnie Hewitt - electric piano
Rob Fisher - acoustic bass
Peter Riso - drums
Poncho Sanchez - congas
Recorded live at Grace Cathedral, San Francisco, CA on May 22, 1976.
 
Лог создания рипа
Exact Audio Copy V1.1 from 23. June 2015
EAC extraction logfile from 18. August 2016, 19:39
Cal Tjader / The Grace Cathedral Concert
Used drive : MATSHITADVD-RAM UJ880AS Adapter: 1 ID: 0
Read mode : Secure
Utilize accurate stream : Yes
Defeat audio cache : Yes
Make use of C2 pointers : No
Read offset correction : 102
Overread into Lead-In and Lead-Out : No
Fill up missing offset samples with silence : Yes
Delete leading and trailing silent blocks : No
Null samples used in CRC calculations : Yes
Used interface : Native Win32 interface for Win NT & 2000
Gap handling : Appended to previous track
Used output format : User Defined Encoder
Selected bitrate : 1024 kBit/s
Quality : High
Add ID3 tag : No
Command line compressor : C:\Program Files (x86)\Exact Audio Copy\Flac\flac.exe
Additional command line options : -8 -V -T "ARTIST=%artist%" -T "TITLE=%title%" -T "ALBUM=%albumtitle%" -T "DATE=%year%" -T "TRACKNUMBER=%tracknr%" -T "GENRE=%genre%" -T "PERFORMER=%albuminterpret%" -T "COMPOSER=%composer%" %haslyrics%--tag-from-file=LYRICS="%lyricsfile%"%haslyrics% -T "ALBUMARTIST=%albumartist%" -T "DISCNUMBER=%cdnumber%" -T "TOTALDISCS=%totalcds%" -T "TOTALTRACKS=%numtracks%" -T "COMMENT=%comment%" %source% -o %dest%
TOC of the extracted CD
Track | Start | Length | Start sector | End sector
---------------------------------------------------------
1 | 0:00.00 | 11:23.47 | 0 | 51271
2 | 11:23.47 | 10:23.53 | 51272 | 98049
3 | 21:47.25 | 14:55.22 | 98050 | 165196
4 | 36:42.47 | 5:44.33 | 165197 | 191029
5 | 42:27.05 | 1:38.70 | 191030 | 198449
Track 1
Filename C:\_rips\Cal Tjader - The Grace Cathedral Concert (1997)\Cal Tjader - The Grace Cathedral Concert (1997) [FLAC]\01 - I Showed Them.wav
Pre-gap length 0:00:02.00
Peak level 100.0 %
Extraction speed 1.8 X
Track quality 100.0 %
Test CRC C39A5AA1
Copy CRC C39A5AA1
Accurately ripped (confidence 2) [9329D471] (AR v2)
Copy OK
Track 2
Filename C:\_rips\Cal Tjader - The Grace Cathedral Concert (1997)\Cal Tjader - The Grace Cathedral Concert (1997) [FLAC]\02 - Bluesology.wav
Pre-gap length 0:00:00.02
Peak level 91.9 %
Extraction speed 2.1 X
Track quality 100.0 %
Test CRC AA83DD18
Copy CRC AA83DD18
Accurately ripped (confidence 2) [380FF703] (AR v2)
Copy OK
Track 3
Filename C:\_rips\Cal Tjader - The Grace Cathedral Concert (1997)\Cal Tjader - The Grace Cathedral Concert (1997) [FLAC]\03 - Black Orpheus Medley Manhã de Carnaval Samba de Orfeu.wav
Pre-gap length 0:00:00.03
Peak level 93.1 %
Extraction speed 2.6 X
Track quality 100.0 %
Test CRC 38CDC732
Copy CRC 38CDC732
Accurately ripped (confidence 2) [7E1A186A] (AR v2)
Copy OK
Track 4
Filename C:\_rips\Cal Tjader - The Grace Cathedral Concert (1997)\Cal Tjader - The Grace Cathedral Concert (1997) [FLAC]\04 - Body and Soul.wav
Pre-gap length 0:00:00.02
Peak level 72.9 %
Extraction speed 2.4 X
Track quality 100.0 %
Test CRC B34DC684
Copy CRC B34DC684
Accurately ripped (confidence 2) [1EEECA11] (AR v2)
Copy OK
Track 5
Filename C:\_rips\Cal Tjader - The Grace Cathedral Concert (1997)\Cal Tjader - The Grace Cathedral Concert (1997) [FLAC]\05 - Theme.wav
Pre-gap length 0:00:00.03
Peak level 85.1 %
Extraction speed 1.6 X
Track quality 99.8 %
Test CRC C22759F2
Copy CRC C22759F2
Accurately ripped (confidence 2) [8ABF1440] (AR v2)
Copy OK
All tracks accurately ripped
No errors occurred
End of status report
---- CUETools DB Plugin V2.1.6
[CTDB TOCID: QV0MphA5O2Y7B_FIdiBNGTI_7b0-] found
Submit result: QV0MphA5O2Y7B_FIdiBNGTI_7b0- has been confirmed
Track | CTDB Status
1 | (1/1) Accurately ripped
2 | (1/1) Accurately ripped
3 | (1/1) Accurately ripped
4 | (1/1) Accurately ripped
5 | (1/1) Accurately ripped
==== Log checksum 8E1CE81E11B2288C443759ACAF68E8D49566C0D5BE5D03884B3541D4E19907DA ====
 
Содержание индексной карты (.CUE)
REM GENRE Jazz
REM DATE 1976
REM DISCID 3E0A5605
REM COMMENT "ExactAudioCopy v1.1"
PERFORMER "Cal Tjader"
TITLE "The Grace Cathedral Concert"
FILE "01 - I Showed Them.wav" WAVE
TRACK 01 AUDIO
TITLE "I Showed Them"
PERFORMER "Cal Tjader"
INDEX 01 00:00:00
TRACK 02 AUDIO
TITLE "Bluesology"
PERFORMER "Cal Tjader"
INDEX 00 11:23:45
FILE "02 - Bluesology.wav" WAVE
INDEX 01 00:00:00
TRACK 03 AUDIO
TITLE "Black Orpheus Medley"
PERFORMER "Cal Tjader"
INDEX 00 10:23:50
FILE "03 - Black Orpheus Medley.wav" WAVE
INDEX 01 00:00:00
TRACK 04 AUDIO
TITLE "Body and Soul"
PERFORMER "Cal Tjader"
INDEX 00 14:55:20
FILE "04 - Body and Soul.wav" WAVE
INDEX 01 00:00:00
TRACK 05 AUDIO
TITLE "Theme"
PERFORMER "Cal Tjader"
INDEX 00 05:44:30
FILE "05 - Theme.wav" WAVE
INDEX 01 00:00:00
 
Отчет CUETools
[CUETools log; Date: 20.08.2016 13:42:20; Version: 2.1.5]
[CTDB TOCID: QV0MphA5O2Y7B_FIdiBNGTI_7b0-] found.
Track | CTDB Status
1 | (2/2) Accurately ripped
2 | (2/2) Accurately ripped
3 | (2/2) Accurately ripped
4 | (2/2) Accurately ripped
5 | (2/2) Accurately ripped
[AccurateRip ID: 000abdff-0030e105-3e0a5605] found.
Track [ CRC | V2 ] Status
01 [4b733e98|9329d471] (0+2/2) Accurately ripped
02 [fe6769d5|380ff703] (0+2/2) Accurately ripped
03 [83af0073|7e1a186a] (0+2/2) Accurately ripped
04 [067e4293|1eeeca11] (0+2/2) Accurately ripped
05 [81a08fcd|8abf1440] (0+2/2) Accurately ripped
Track Peak [ CRC32 ] [W/O NULL] [ LOG ]
-- 100,0 [524A8584] [26787EA4]
01 100,0 [C39A5AA1] [00C59975] CRC32
02 91,9 [AA83DD18] [A7923F90] CRC32
03 93,1 [38CDC732] [275B328E] CRC32
04 72,9 [B34DC684] [C3FCB057] CRC32
05 85,1 [C22759F2] [35F61252] CRC32
 
AllMusic Review by Scott Yanow
Unlike Vince Guaraldi's Grace Cathedral concert, vibraphonist Cal Tjader's was not a religious event. In fact, this quintet outing (which includes Lonnie Hewitt on electric piano and the young Poncho Sanchez on congas) is a fairly typical concert for the era, despite the location. As it turned out, Tjader was a replacement for Guaraldi, who had originally been scheduled but had recently passed away. The vibist's Latin jazz group performs the leader's "I Showed Them," Milt Jackson's swinging "Bluesology," a medley from Black Orpheus, and "Body and Soul."
21:57
304
Нет комментариев. Ваш будет первым!