Поиск

(Jazz) Baptiste Trotignon & David El-Malek - No title - 2005, FLAC (tracks+.cue), lossless

(Jazz) Baptiste Trotignon & David El-Malek - No title - 2005, FLAC (tracks+.cue), lossless
Треклист:
Baptiste Trotignon & David El-Malek - No title
Страна: France
Жанр: Jazz
Год выпуска: 2005
Формат: FLAC (tracks+.cue)
Битрейт аудио: lossless
Трэклист:
Nir-hein
Children song
Soukha
Bass on top
Bribs
In a dream
Monsieur Degand
334
Le chemin du serpent
Snow
Доп. информация:
Baptiste Trotignon piano
David El-Malek tenor & soprano sax
Darryl Hall double-bass
Dre Pallemaerts drums




Рип мой с фирменного диска.
Сканы 300 dpi PNG+JPEG
Также в комплекте: m3u, cue list, log, скриншот EAC'a с показателями диска.
 
Отчёт EAC
Exact Audio Copy V0.99 prebeta 4 from 23. January 2008
EAC extraction logfile from 27. February 2008, 23:01
Baptiste Trotignon & David El-Malek / No title
Used drive : HL-DT-STDVDRAM GSA-H10N Adapter: 2 ID: 0
Read mode : Secure
Utilize accurate stream : Yes
Defeat audio cache : Yes
Make use of C2 pointers : No
Read offset correction : 667
Overread into Lead-In and Lead-Out : No
Fill up missing offset samples with silence : Yes
Delete leading and trailing silent blocks : No
Null samples used in CRC calculations : Yes
Used interface : Native Win32 interface for Win NT & 2000
Gap handling : Appended to previous track
Used output format : Internal WAV Routines
Sample format : 44.100 Hz; 16 Bit; Stereo
TOC of the extracted CD
Track | Start | Length | Start sector | End sector
---------------------------------------------------------
1 | 0:00.00 | 5:27.09 | 0 | 24533
2 | 5:27.09 | 4:15.53 | 24534 | 43711
3 | 9:42.62 | 6:40.41 | 43712 | 73752
4 | 16:23.28 | 6:29.55 | 73753 | 102982
5 | 22:53.08 | 7:05.11 | 102983 | 134868
6 | 29:58.19 | 5:37.48 | 134869 | 160191
7 | 35:35.67 | 7:05.33 | 160192 | 192099
8 | 42:41.25 | 6:07.41 | 192100 | 219665
9 | 48:48.66 | 4:02.32 | 219666 | 237847
10 | 52:51.23 | 2:32.29 | 237848 | 249276
Track 1
Filename E:\01 - Nir-Hein 22,09,1978.wav
Pre-gap length 0:00:02.00
Peak level 100.0 %
Track quality 100.0 %
Test CRC 5C40FAC2
Copy CRC 5C40FAC2
Copy OK
Track 2
Filename E:\02 - Children Song.wav
Pre-gap length 0:00:01.66
Peak level 100.0 %
Track quality 99.9 %
Test CRC 1CA218FD
Copy CRC 1CA218FD
Copy OK
Track 3
Filename E:\03 - Soukha.wav
Pre-gap length 0:00:02.00
Peak level 100.0 %
Track quality 100.0 %
Test CRC 28D5409E
Copy CRC 28D5409E
Copy OK
Track 4
Filename E:\04 - Bass on Top.wav
Pre-gap length 0:00:02.66
Peak level 100.0 %
Track quality 100.0 %
Test CRC 8EB624F5
Copy CRC 8EB624F5
Copy OK
Track 5
Filename E:\05 - Bribs.wav
Pre-gap length 0:00:02.00
Peak level 100.0 %
Track quality 100.0 %
Test CRC 12602BBD
Copy CRC 12602BBD
Copy OK
Track 6
Filename E:\06 - In a Dream.wav
Pre-gap length 0:00:02.00
Peak level 100.0 %
Track quality 100.0 %
Test CRC 4BC05FFA
Copy CRC 4BC05FFA
Copy OK
Track 7
Filename E:\07 - Monsieur Degand.wav
Pre-gap length 0:00:02.00
Peak level 100.0 %
Track quality 100.0 %
Test CRC C5F561D6
Copy CRC C5F561D6
Copy OK
Track 8
Filename E:\08 - 334.wav
Pre-gap length 0:00:01.66
Peak level 100.0 %
Track quality 100.0 %
Test CRC 56CB3B45
Copy CRC 56CB3B45
Copy OK
Track 9
Filename E:\09 - Le Chemin du Serpent.wav
Pre-gap length 0:00:01.66
Peak level 100.0 %
Track quality 99.9 %
Test CRC 33A07656
Copy CRC 33A07656
Copy OK
Track 10
Filename E:\10 - Snow.wav
Pre-gap length 0:00:03.00
Peak level 100.0 %
Track quality 100.0 %
Test CRC B596C5B4
Copy CRC B596C5B4
Copy OK
No errors occurred
End of status report
Приватный:
Нет (DHT включён)
Размер:
371.25 Мб (389,283,426 байт) » файлов: 20
Участники:
0 раздают, 0 качают (0 участников всего)
Внешние участники:
1 раздают, 0 качают (1 участников всего) [ Обновить ]
For power users only: no seeders - write personal message to M0p94ok. Для power user: нет сидеров - пишите в личку M0p94ok.
01:38
133
Нет комментариев. Ваш будет первым!