Поиск

(Jazz) Dave Brubeck - Best Of Brubeck 1979-2004(2CD) - 2007, FLAC (image + .cue), lossless

Треклист:
Dave Brubeck - Best Of Brubeck 1979-2004(2CD)
Жанр: Jazz
Год выпуска: 2007
Формат: FLAC (image + .cue)
Битрейт аудио: lossless
Продолжительность: 67:19 + 65:33
Трэклист:
Треклист:
Диск 1
1 Yesterdays (Harbach/Kern) 8:07
2 Symphony (Alstone) 5:06
3 Koto Song (Brubeck) 9:06
4 Black and Blue (Brooks/R/W) 7:18
5 Big Bad Basie (Brubeck) 5:46
6 Reflections of You (Brubeck) 5:25
7 Blue Lake Tahoe (Brubeck) 5:13
8 Dizzy's Dream (Brubeck) 4:10
9 St. Louis Blues (Handy) 9:49
10 Take Five (Desmond) 7:15
Диск 2
1 Cherokee (Noble) 5:40
2 Fourth of July (Brubeck) 5:14
3 The Things You Never Remember (Brubeck) 7:58
4 Waltzing (Brubeck) 7:14
5 I Got Rhythm (Gershwin) 7:03
6 Day After Day (Brubeck) 6:44
7 Love for Sale (Porter) 8:36
8 Cassandra (Brubeck) 4:16
9 Forty Days (Brubeck) 6:18
10 River Stay 'Way from My Door (Dixon/Woods) 6:25
Доп. информация: Двойник издан в честь 60-летия, прошедшего с момента первой записи Дэйва Брубека. Состоит из 20 записей, сделанных для Concord Jazz (DISC ONE) и Telarc (DISC TWO), из них 11 "живых" и 9 студийных.
Участвуют: Bobby Militello, alto saxophone; Jack Six, bass; Alec Dankworth, bass; Michael Moore, bass; Randy Jones, drums и другие.
 
Отчет ЕАС (CD1)
Exact Audio Copy V0.99 prebeta 3 from 28. July 2007
Отчёт EAC об извлечении, выполненном 17. марта 2008, 0:33
Dave Brubeck / Best of Brubeck (1979-2004) (Disc 1)
Дисковод: TOSHIBA DVD-ROM SD-M1712 Adapter: 0 ID: 3
Режим чтения : Достоверность
Использование точного потока : Да
Отключение кэша аудио : Да
Использование указателей C2 : Нет
Коррекция смещения при чтении : -472
Способность читать области Lead-in и Lead-out : Нет
Заполнение пропущенных сэмплов тишиной : Да
Удаление блоков с тишиной в начале и конце : Нет
При вычислениях CRC использовались нулевые сэмплы : Да
Интерфейс : Установленный внешний ASPI-интерфейс
Выходной формат : Пользовательский кодировщик
Выбранный битрейт : 768 kBit/s
Качество : Высокий
Добавление ID3-тэга : Нет
Утилита сжатия : C:\Program Files\Exact Audio Copy\FLAC\FLAC.EXE
Дополнительные параметры : -6 -V -T "ARTIST=%a" -T "TITLE=%t" -T "ALBUM=%g" -T "DATE=%y" -T "TRACKNUMBER=%n" -T "GENRE=%m" -T "COMMENT=%e" %s -o %d
TOC извлечённого CD
Трек | Старт | Длительность | Начальный сектор | Конечный сектор
---------------------------------------------------------------------
1 | 0:00.00 | 8:07.31 | 0 | 36555
2 | 8:07.31 | 5:06.73 | 36556 | 59578
3 | 13:14.29 | 9:06.08 | 59579 | 100536
4 | 22:20.37 | 7:18.24 | 100537 | 133410
5 | 29:38.61 | 5:46.38 | 133411 | 159398
6 | 35:25.24 | 5:25.70 | 159399 | 183843
7 | 40:51.19 | 5:13.17 | 183844 | 207335
8 | 46:04.36 | 4:10.15 | 207336 | 226100
9 | 50:14.51 | 9:49.27 | 226101 | 270302
10 | 60:04.03 | 7:15.47 | 270303 | 302974
Характеристики диапазона извлечения и сообщения об ошибках
Выбранный диапазон
Имя файла G:\My Docs 2\My Music 2\The Dave Brubeck Quartet - Best of Brubeck (1979-2004)\The Dave Brubeck Quartet - Best of Brubeck (1979-2004) (Disc 1).wav
Пиковый уровень 100.0 %
Качество диапазона 100.0 %
CRC копии 2C9F504A
Копирование... OK
Ошибок не произошло
Конец отчёта
 
Отчет ЕАС (CD2)
Exact Audio Copy V0.99 prebeta 3 from 28. July 2007
Отчёт EAC об извлечении, выполненном 17. марта 2008, 1:00
The Dave Brubeck Quartet / Best of Brubeck (1979-2004) (Disc 2)
Дисковод: TOSHIBA DVD-ROM SD-M1712 Adapter: 0 ID: 3
Режим чтения : Достоверность
Использование точного потока : Да
Отключение кэша аудио : Да
Использование указателей C2 : Нет
Коррекция смещения при чтении : -472
Способность читать области Lead-in и Lead-out : Нет
Заполнение пропущенных сэмплов тишиной : Да
Удаление блоков с тишиной в начале и конце : Нет
При вычислениях CRC использовались нулевые сэмплы : Да
Интерфейс : Установленный внешний ASPI-интерфейс
Выходной формат : Пользовательский кодировщик
Выбранный битрейт : 768 kBit/s
Качество : Высокий
Добавление ID3-тэга : Нет
Утилита сжатия : C:\Program Files\Exact Audio Copy\FLAC\FLAC.EXE
Дополнительные параметры : -6 -V -T "ARTIST=%a" -T "TITLE=%t" -T "ALBUM=%g" -T "DATE=%y" -T "TRACKNUMBER=%n" -T "GENRE=%m" -T "COMMENT=%e" %s -o %d
TOC извлечённого CD
Трек | Старт | Длительность | Начальный сектор | Конечный сектор
---------------------------------------------------------------------
1 | 0:00.00 | 5:40.46 | 0 | 25545
2 | 5:40.46 | 5:14.62 | 25546 | 49157
3 | 10:55.33 | 7:58.42 | 49158 | 85049
4 | 18:54.00 | 7:14.67 | 85050 | 117666
5 | 26:08.67 | 7:03.33 | 117667 | 149424
6 | 33:12.25 | 6:44.11 | 149425 | 179735
7 | 39:56.36 | 8:36.39 | 179736 | 218474
8 | 48:33.00 | 4:16.64 | 218475 | 237738
9 | 52:49.64 | 6:18.39 | 237739 | 266127
10 | 59:08.28 | 6:25.34 | 266128 | 295036
Характеристики диапазона извлечения и сообщения об ошибках
Выбранный диапазон
Имя файла G:\My Docs 2\My Music 2\Dave Brubeck - Best of Brubeck (1979-2004)\The Dave Brubeck Quartet - Best of Brubeck (1979-2004) (Disc 2).wav
Пиковый уровень 100.0 %
Качество диапазона 100.0 %
CRC копии 83B3BFD9
Копирование... OK
Ошибок не произошло
Конец отчёта
Приватный:
Нет (DHT включён)
Размер:
760.16 Мб (797,087,034 байт) » файлов: 12
Участники:
0 раздают, 0 качают (0 участников всего)
Внешние участники:
2 раздают, 1 качают (3 участников всего) [ Обновить ]
No seeders - write personal message to M0p94ok. Нет сидеров - пишите в личку M0p94ok.
01:39
131
Нет комментариев. Ваш будет первым!